VERSION	0.00.00	1.03.00
FES_MODE	0
BPM_DEF	156.000	156.000	156.000	156.000
MET_DEF	4	4
RESOLUTION	384
CLK_DEF	384
COMPATIBLE_CODE	MA2

BPM	0	0	156.000
MET	0	0	4	4

STR	2	0	1
SXL	2	0	1	96	432	4
TAP	2	0	5
TAP	3	240	5
TAP	3	264	4
TAP	3	288	5
TAP	3	312	4
TAP	4	0	2
STR	4	0	6
SSL	4	0	6	96	288	2
STR	5	96	3
SF_	5	96	3	96	96	7
STR	6	0	1
SXR	6	0	1	96	432	2
STR	6	0	5
SXR	6	0	5	96	432	6
TAP	7	264	3
TAP	7	264	7
HLD	7	312	3	48
HLD	7	312	7	48
STR	8	0	1
SLL	8	0	1	96	192	2
STR	8	0	5
SLL	8	0	5	96	192	6
TAP	8	336	3
HLD	8	336	7	96
TAP	9	48	0
HLD	9	120	1	48
HLD	9	120	2	48
HLD	9	192	0	48
HLD	9	192	7	48
HLD	9	264	5	48
HLD	9	264	6	48
TAP	9	336	0
TAP	9	336	7
TAP	10	0	1
STR	10	0	6
SCL	10	0	6	96	192	3
TTP	10	96	0	C	0	M1
TTP	10	192	0	C	0	M1
TTP	10	288	0	C	0	M1
STR	11	0	1
SCR	11	0	1	96	192	4
TAP	11	0	5
TTP	11	96	0	C	0	M1
TTP	11	192	0	C	0	M1
TTP	11	288	7	E	0	M1
TTP	11	312	3	E	0	M1
TTP	11	336	6	E	0	M1
TTP	11	360	2	E	0	M1
TTP	12	0	0	C	0	M1
TTP	12	96	0	C	0	M1
TTP	12	192	0	C	0	M1
TTP	12	192	1	E	0	M1
TTP	12	288	0	C	0	M1
TTP	12	288	3	E	0	M1
STR	13	0	1
SI_	13	0	1	96	48	4
STR	13	0	6
SI_	13	0	6	96	48	3
TAP	13	192	1
TAP	13	192	7
TAP	13	240	2
TAP	13	240	6
TAP	13	288	5
TAP	13	312	4
TAP	13	360	4
TAP	14	0	3
HLD	14	0	6	48
TAP	14	72	2
HLD	14	72	5	48
TAP	14	144	1
HLD	14	144	4	48
TAP	14	216	0
HLD	14	216	3	48
HLD	14	288	2	48
TAP	14	288	7
HLD	14	360	1	48
TAP	14	360	6
HLD	15	48	0	48
TAP	15	48	5
TAP	15	120	4
HLD	15	120	7	48
TAP	15	192	3
HLD	15	192	6	48
TAP	15	264	2
HLD	15	264	5	48
TAP	15	336	1
HLD	15	336	4	48
TAP	16	0	1
TAP	16	24	3
TAP	16	48	2
TAP	16	72	4
TAP	16	96	3
TAP	16	120	5
TAP	16	144	4
TAP	16	168	6
TAP	16	192	3
TAP	16	216	7
TAP	16	240	2
TAP	16	264	6
TAP	16	288	1
TAP	16	312	5
TAP	16	336	0
TAP	16	360	4
XTP	17	0	1
XTP	17	12	2
XTP	17	24	3
XTP	17	36	4
XTP	17	48	5
XTP	17	60	6
XTP	17	72	7
XTP	17	84	0
XST	17	96	1
SUR	17	96	1	96	144	4
XTP	17	108	2
XTP	17	120	3
XTP	17	132	4
XTP	17	144	5
XTP	17	156	6
XTP	17	168	7
XTP	17	180	0
XTP	17	192	1
XTP	17	192	5
BRK	18	0	3
BRK	18	0	7
TAP	18	96	6
TAP	18	120	4
TAP	18	144	5
TAP	18	168	4
TAP	18	192	6
TAP	18	216	3
TAP	18	240	4
TAP	18	264	3
STR	18	288	6
SI_	18	288	6	96	48	3
TAP	18	312	4
TAP	18	336	5
TAP	18	360	4
TAP	19	96	1
TAP	19	120	3
TAP	19	144	2
TAP	19	168	3
TAP	19	192	1
TAP	19	216	4
TAP	19	240	3
TAP	19	264	4
STR	19	288	1
SI_	19	288	1	96	48	4
SV_	19	288	1	96	48	4
TAP	19	312	3
TAP	19	336	2
TAP	20	96	6
TAP	20	120	4
TAP	20	144	5
TAP	20	168	4
TAP	20	192	6
TAP	20	216	3
TAP	20	240	4
TAP	20	264	3
STR	20	288	6
SI_	20	288	6	96	48	3
TAP	20	312	4
TAP	20	336	5
TAP	20	360	4
TAP	21	96	1
TAP	21	120	3
TAP	21	144	2
TAP	21	168	3
TAP	21	192	1
TAP	21	216	1
TAP	21	264	5
TAP	21	288	4
TAP	21	312	6
XTP	22	0	3
XTP	22	0	7
TAP	22	96	1
TAP	22	128	3
TAP	22	144	2
TAP	22	176	3
TAP	22	192	1
TAP	22	224	4
TAP	22	240	3
TAP	22	272	4
STR	22	288	1
SI_	22	288	1	96	48	4
TAP	22	320	3
TAP	22	336	2
TAP	22	368	3
TAP	23	96	6
TAP	23	128	4
TAP	23	144	5
TAP	23	176	4
TAP	23	192	6
TAP	23	224	3
TAP	23	240	4
TAP	23	272	3
STR	23	288	6
SI_	23	288	6	96	48	0
SI_	23	288	6	96	48	4
TAP	23	320	4
TAP	23	336	5
TAP	24	96	2
TAP	24	120	2
TAP	24	144	3
TAP	24	168	3
TAP	24	192	1
TAP	24	216	1
TAP	24	240	6
TAP	24	264	6
TAP	24	288	4
TAP	24	312	4
TAP	24	336	5
TAP	24	360	5
HLD	25	48	0	48
HLD	25	48	6	48
HLD	25	120	2	48
HLD	25	120	3	48
HLD	25	192	1	48
HLD	25	192	7	48
HLD	25	264	4	48
HLD	25	264	5	48
TAP	25	336	0
TAP	25	336	6
BRK	26	0	1
BRK	26	0	5
TAP	26	96	6
TAP	26	128	4
TAP	26	144	5
TAP	26	176	3
TAP	26	192	4
TAP	26	224	3
TAP	26	240	5
TAP	26	272	2
STR	26	288	6
SI_	26	288	6	96	48	2
TAP	26	320	4
TAP	26	336	5
TAP	26	368	3
TAP	27	96	1
TAP	27	128	3
TAP	27	144	2
TAP	27	176	3
XHO	27	192	1	48
XHO	27	192	4	48
HLD	27	264	3	48
HLD	27	264	6	48
XTP	27	336	0
XTP	27	336	4
TAP	28	96	1
TAP	28	128	3
TAP	28	144	2
TAP	28	176	4
TAP	28	192	3
TAP	28	224	4
TAP	28	240	2
TAP	28	272	5
STR	28	288	1
SI_	28	288	1	96	48	5
TAP	28	320	3
TAP	28	336	2
TAP	28	368	4
TAP	29	96	6
TAP	29	128	4
TAP	29	144	5
TAP	29	176	4
XHO	29	192	3	48
XHO	29	192	6	48
HLD	29	264	1	48
HLD	29	264	4	48
TAP	29	336	0
TAP	29	336	6
XTP	30	0	1
XTP	30	0	5
TAP	30	96	6
TAP	30	128	4
TAP	30	144	5
TAP	30	176	3
TAP	30	192	4
TAP	30	224	3
TAP	30	240	5
TAP	30	272	2
STR	30	288	6
SI_	30	288	6	96	48	2
TAP	30	320	4
TAP	30	336	5
TAP	30	368	3
TAP	31	96	1
TAP	31	128	3
TAP	31	144	2
TAP	31	176	4
TAP	31	192	3
TAP	31	224	5
TAP	31	240	2
TAP	31	272	6
STR	31	288	1
SI_	31	288	1	96	48	4
SI_	31	288	1	96	48	6
TAP	31	320	0
TAP	31	336	2
TAP	32	96	5
TAP	32	120	5
TAP	32	144	4
TAP	32	168	4
TAP	32	192	6
TAP	32	216	6
TAP	32	240	1
TAP	32	264	1
TAP	32	288	3
TAP	32	312	3
TAP	32	336	2
TAP	32	360	2
HLD	33	48	1	48
HLD	33	48	7	48
HLD	33	120	4	48
HLD	33	120	5	48
HLD	33	192	0	48
HLD	33	192	6	48
HLD	33	264	2	48
HLD	33	264	3	48
TAP	33	336	1
TAP	33	336	7
BRK	34	0	2
BRK	34	0	6
TAP	34	96	1
TAP	34	120	3
TAP	34	144	2
TAP	34	168	4
TAP	34	192	3
TAP	34	216	5
TAP	34	240	4
TAP	34	264	6
STR	34	288	3
SI_	34	288	3	96	48	0
TAP	34	312	5
TAP	34	336	2
TAP	34	360	4
TAP	35	0	3
TAP	35	96	6
TAP	35	120	4
TAP	35	144	5
TAP	35	168	3
TAP	35	192	4
TAP	35	216	2
TAP	35	240	3
TAP	35	264	1
STR	35	288	4
SI_	35	288	4	96	48	7
TAP	35	312	2
TAP	35	336	5
TAP	35	360	3
TAP	36	0	4
TAP	36	96	0
TAP	36	120	6
TAP	36	144	4
TAP	36	168	5
TAP	36	192	1
TAP	36	216	7
TAP	36	240	2
TAP	36	264	3
TAP	36	288	0
TAP	36	312	6
TAP	36	336	4
TAP	36	360	5
BRK	37	0	0
TAP	37	96	0
TAP	37	96	4
TAP	37	120	1
TAP	37	120	5
TAP	37	144	2
TAP	37	144	6
TAP	37	168	3
TAP	37	168	7
STR	37	192	0
SUL	37	192	0	96	48	3
STR	37	192	4
SUL	37	192	4	96	48	7
HLD	38	0	1	48
TAP	38	0	5
HLD	38	72	2	48
TAP	38	72	6
HLD	38	144	3	48
TAP	38	144	7
TAP	38	216	0
HLD	38	216	4	48
TAP	38	288	1
HLD	38	288	5	48
TAP	38	360	2
HLD	38	360	6	48
TAP	39	48	3
HLD	39	48	7	48
HLD	39	120	0	48
TAP	39	120	4
HLD	39	192	1	48
TAP	39	192	5
HLD	39	264	2	48
TAP	39	264	6
HLD	39	336	3	48
TAP	39	336	7
TAP	40	0	6
TAP	40	24	4
TAP	40	48	5
TAP	40	72	3
TAP	40	96	4
TAP	40	120	2
TAP	40	144	3
TAP	40	168	1
TAP	40	192	4
TAP	40	216	0
TAP	40	240	5
TAP	40	264	1
TAP	40	288	6
TAP	40	312	2
TAP	40	336	7
TAP	40	360	3
XTP	41	0	6
XTP	41	12	5
XTP	41	24	4
XTP	41	36	3
XTP	41	48	2
XTP	41	60	1
XTP	41	72	0
XTP	41	84	7
XST	41	96	6
SUL	41	96	6	96	144	3
XTP	41	108	5
XTP	41	120	4
XTP	41	132	3
XTP	41	144	2
XTP	41	156	1
XTP	41	168	0
XTP	41	180	7
XTP	41	192	2
XTP	41	192	6
BST	42	0	0
SCR	42	0	0	96	456	4
THO	42	0	0	2688	C	0	M1
HLD	43	312	3	48
STR	44	0	2
SUL	44	0	2	96	576	4
STR	46	0	5
SUR	46	0	5	96	480	2
TAP	47	264	1
HLD	47	312	1	48
STR	48	0	0
SLL	48	0	0	96	216	1
HLD	49	0	1	48
HLD	49	72	2	48
HLD	49	144	3	48
HLD	49	216	2	48
TAP	49	288	1
TAP	49	312	1
THO	50	0	0	1344	C	0	M1
BST	50	0	7
SCL	50	0	7	96	528	3
STR	52	0	4
SUR	52	0	4	96	384	1
TAP	53	192	1
HLD	53	240	0	48
TAP	53	312	7
TAP	54	0	2
HLD	54	0	6	48
TAP	54	72	1
HLD	54	72	5	48
TAP	54	144	0
HLD	54	144	4	48
HLD	54	216	3	48
TAP	54	216	7
HLD	54	288	2	48
TAP	54	288	6
HLD	54	360	1	48
TAP	54	360	5
HLD	55	48	0	48
TAP	55	48	4
TAP	55	120	3
HLD	55	120	7	48
TAP	55	192	2
HLD	55	192	6	48
TAP	55	264	1
HLD	55	264	5	48
TAP	55	336	0
HLD	55	336	4	48
TAP	56	0	1
TAP	56	24	3
TAP	56	48	2
TAP	56	72	4
TAP	56	96	3
TAP	56	120	5
TAP	56	144	4
TAP	56	168	6
TAP	56	192	3
TAP	56	216	7
TAP	56	240	2
TAP	56	264	6
TAP	56	288	1
TAP	56	312	5
TAP	56	336	0
TAP	56	360	4
XTP	57	0	0
XTP	57	12	1
XTP	57	24	2
XTP	57	36	3
XTP	57	48	4
XTP	57	60	5
XTP	57	72	6
XTP	57	84	7
XTP	57	96	0
XTP	57	108	1
XTP	57	120	2
XTP	57	132	3
XTP	57	144	4
XTP	57	156	5
XTP	57	168	6
XTP	57	180	7
BRK	57	192	0
TTP	57	192	0	C	1	M1
STR	57	288	2
SCR	57	288	2	96	96	6
STR	57	288	6
SI_	57	288	6	96	48	3
STR	58	0	6
SCR	58	0	6	96	96	2
STR	58	96	3
SI_	58	96	3	96	48	0
XST	58	192	3
SXR	58	192	3	96	336	7
BRK	58	288	7
STR	59	96	6
SI_	59	96	6	96	48	3
XTP	59	192	6
STR	59	288	1
SI_	59	288	1	96	48	4
STR	59	288	5
SCL	59	288	5	96	96	1
STR	60	0	1
SCL	60	0	1	96	96	5
STR	60	96	4
SI_	60	96	4	96	48	7
XST	60	192	4
SCL	60	192	4	96	192	6
BRK	60	288	0
TAP	61	96	2
XTP	61	192	1
XTP	61	192	3
TAP	61	216	1
TAP	61	216	3
TAP	61	264	2
TAP	61	264	6
STR	61	288	2
SCR	61	288	2	96	96	6
STR	61	288	6
SV_	61	288	6	96	48	3
TAP	61	336	1
TAP	61	336	7
STR	62	0	6
SCR	62	0	6	96	144	2
STR	62	96	3
SI_	62	96	3	96	48	0
XST	62	192	3
SXR	62	192	3	96	336	7
BRK	62	288	7
STR	63	96	6
SI_	63	96	6	96	48	3
XTP	63	192	6
STR	63	288	1
SV_	63	288	1	96	48	4
STR	63	288	5
SCL	63	288	5	96	96	1
STR	64	0	1
SCL	64	0	1	96	144	5
STR	64	96	4
SI_	64	96	4	96	48	7
XST	64	192	4
SCL	64	192	4	96	192	6
BRK	64	288	0
TAP	65	96	2
BRK	65	192	0
BRK	65	192	4
STR	65	288	2
SLR	65	288	2	96	96	6
STR	65	288	6
SI_	65	288	6	96	48	3
STR	66	0	6
SLR	66	0	6	96	96	2
STR	66	96	3
SI_	66	96	3	96	48	0
XST	66	192	3
SXR	66	192	3	96	336	7
BRK	66	288	7
STR	67	96	6
SI_	67	96	6	96	48	3
XTP	67	192	6
STR	67	288	1
SI_	67	288	1	96	48	4
STR	67	288	5
SLL	67	288	5	96	96	1
STR	68	0	1
SLL	68	0	1	96	96	5
STR	68	96	4
SI_	68	96	4	96	48	7
XST	68	192	4
SCL	68	192	4	96	192	6
BRK	68	288	0
TAP	69	96	2
XTP	69	192	1
XTP	69	192	3
TAP	69	216	1
TAP	69	216	3
TAP	69	264	2
TAP	69	264	6
STR	69	288	2
SLR	69	288	2	96	96	6
STR	69	288	6
SV_	69	288	6	96	48	3
TAP	69	336	1
TAP	69	336	7
STR	70	0	6
SLR	70	0	6	96	144	2
STR	70	96	3
SI_	70	96	3	96	48	0
XST	70	192	3
SXR	70	192	3	96	336	7
BRK	70	288	7
STR	71	96	6
SI_	71	96	6	96	48	3
XTP	71	192	6
STR	71	288	1
SV_	71	288	1	96	48	4
STR	71	288	5
SLL	71	288	5	96	96	1
STR	72	0	1
SLL	72	0	1	96	144	5
STR	72	96	4
SI_	72	96	4	96	48	7
XST	72	192	4
SCL	72	192	4	96	144	6
BRK	72	288	0
STR	73	96	1
SI_	73	96	1	96	48	4
STR	73	96	5
SI_	73	96	5	96	48	0
BRK	73	288	2
BRK	73	288	6
STR	74	0	6
SI_	74	0	6	96	48	3
TAP	74	24	7
TAP	74	72	7
TAP	74	96	6
TAP	74	144	0
STR	74	192	1
SI_	74	192	1	96	48	4
TAP	74	216	0
TAP	74	264	0
TAP	74	288	1
TAP	74	336	7
STR	75	0	5
SI_	75	0	5	96	48	0
TAP	75	24	4
TAP	75	72	4
TAP	75	96	5
TAP	75	144	3
STR	75	192	2
SI_	75	192	2	96	48	7
TAP	75	216	3
TAP	75	264	3
TAP	75	288	2
TAP	75	336	4
STR	76	0	6
SCL	76	0	6	96	48	3
TAP	76	24	7
TAP	76	72	7
TAP	76	96	6
TAP	76	144	0
STR	76	192	1
SCR	76	192	1	96	48	4
TAP	76	216	0
TAP	76	264	0
TAP	76	288	1
TAP	76	336	7
TAP	77	0	2
HLD	77	0	6	96
TAP	77	96	7
TAP	77	120	6
TAP	77	144	1
TAP	77	168	0
TAP	77	192	2
BRK	77	192	7
BRK	77	264	0
TAP	77	264	5
TAP	77	336	2
TAP	77	336	6
STR	78	0	1
SV_	78	0	1	96	48	4
TAP	78	24	0
TAP	78	72	0
TAP	78	96	1
TAP	78	144	7
STR	78	192	6
SV_	78	192	6	96	48	3
TAP	78	216	7
TAP	78	264	7
TAP	78	288	6
TAP	78	336	0
STR	79	0	2
SV_	79	0	2	96	48	7
TAP	79	24	3
TAP	79	72	3
TAP	79	96	2
TAP	79	144	4
STR	79	192	5
SV_	79	192	5	96	48	0
TAP	79	216	4
TAP	79	264	4
TAP	79	288	5
TAP	79	336	3
BST	80	0	2
SI_	80	0	2	96	48	0
BST	80	0	7
SI_	80	0	7	96	48	3
HLD	80	192	0	96
BST	80	192	3
SI_	80	192	3	96	48	6
TAP	80	288	3
TAP	80	336	1
TAP	80	348	2
TAP	80	360	3
TAP	80	372	4
BRK	81	0	7
BRK	81	72	0
TAP	81	72	6
TAP	81	144	2
BRK	81	144	7
BRK	81	216	1
HLD	81	216	5	72
TAP	81	336	3
TAP	81	336	4
STR	82	0	1
SI_	82	0	1	96	48	4
TAP	82	24	0
TAP	82	48	2
TAP	82	72	0
TAP	82	96	1
TAP	82	144	7
STR	82	192	6
SI_	82	192	6	96	48	3
TAP	82	216	7
TAP	82	240	5
TAP	82	264	7
TAP	82	288	6
TAP	82	336	0
TAP	83	0	1
TAP	83	24	3
TAP	83	48	2
TAP	83	72	4
TAP	83	96	3
TAP	83	120	5
TAP	83	144	4
TAP	83	168	6
TAP	83	192	3
BRK	83	192	7
BRK	83	264	1
TAP	83	264	4
BRK	83	336	3
TAP	83	336	7
STR	84	0	6
SCL	84	0	6	96	48	3
TAP	84	24	7
TAP	84	48	5
TAP	84	72	7
TAP	84	96	6
TAP	84	144	0
STR	84	192	1
SCR	84	192	1	96	48	4
TAP	84	216	0
TAP	84	240	2
TAP	84	264	0
TAP	84	288	1
TAP	84	336	7
TAP	85	0	0
HLD	85	0	6	96
TAP	85	96	7
TAP	85	120	6
TAP	85	144	1
TAP	85	168	0
TAP	85	192	2
BRK	85	192	7
BRK	85	264	0
TAP	85	264	5
TAP	85	336	3
BRK	85	336	7
STR	86	0	5
SV_	86	0	5	96	48	0
TAP	86	24	4
TAP	86	48	6
TAP	86	72	4
TAP	86	96	5
TAP	86	144	3
STR	86	192	2
SV_	86	192	2	96	48	7
TAP	86	216	3
TAP	86	240	1
TAP	86	264	3
TAP	86	288	2
TAP	86	336	4
STR	87	0	6
SV_	87	0	6	96	48	3
TAP	87	24	7
TAP	87	48	5
TAP	87	72	7
TAP	87	96	6
TAP	87	144	0
TAP	87	192	2
TAP	87	216	3
TAP	87	240	0
TAP	87	264	7
TAP	87	288	4
TAP	87	312	5
TAP	87	336	0
TAP	87	360	7
BST	88	0	2
SI_	88	0	2	96	48	7
BST	88	0	6
SI_	88	0	6	96	48	3
BRK	88	192	1
BRK	88	192	5
TAP	88	288	3
TAP	88	312	3
TAP	88	336	4
TAP	88	360	4
BRK	89	48	2
BRK	89	48	7
TAP	89	72	2
TAP	89	72	7
BRK	89	120	0
BRK	89	120	5
TAP	89	144	0
TAP	89	144	5
BRK	89	192	2
BRK	89	192	6
TAP	89	240	0
TAP	89	252	1
TAP	89	252	7
BRK	89	264	2
BRK	89	264	6
TAP	89	276	3
TAP	89	276	5
STR	89	288	4
SCL	89	288	4	96	384	4
SCR	89	288	4	96	384	4
BRK	89	336	2
BRK	89	336	6
BRK	90	0	4

T_REC_TAP	442
T_REC_BRK	45
T_REC_XTP	64
T_REC_HLD	73
T_REC_XHO	4
T_REC_STR	84
T_REC_BST	7
T_REC_XST	10
T_REC_TTP	16
T_REC_THO	2
T_REC_SLD	105
T_REC_ALL	852
T_NUM_TAP	616
T_NUM_BRK	52
T_NUM_HLD	79
T_NUM_SLD	105
T_NUM_ALL	852
T_JUDGE_TAP	668
T_JUDGE_HLD	166
T_JUDGE_SLD	105
T_JUDGE_ALL	939
TTM_EACHPAIRS	124
TTM_SCR_TAP	308000
TTM_SCR_BRK	135200
TTM_SCR_HLD	79000
TTM_SCR_SLD	157500
TTM_SCR_ALL	679700
TTM_SCR_S	654300
TTM_SCR_SS	674500
TTM_RAT_ACV	10077

