VERSION	0.00.00	1.03.00
FES_MODE	0
BPM_DEF	156.000	156.000	156.000	156.000
MET_DEF	4	4
RESOLUTION	384
CLK_DEF	384
COMPATIBLE_CODE	MA2

BPM	0	0	156.000
MET	0	0	4	4

XST	2	0	3
SCL	2	0	3	96	480	4
XTP	2	0	4
XTP	3	312	3
XTP	3	312	4
XTP	4	0	3
XST	4	0	4
SCR	4	0	4	96	480	3
HLD	5	192	4	192
XST	6	0	3
SCL	6	0	3	96	384	4
XTP	7	264	2
XTP	7	264	5
XTP	7	312	2
XTP	7	312	5
XTP	8	0	3
XST	8	0	4
SI_	8	0	4	96	192	0
XTP	9	48	3
XTP	9	48	5
XTP	9	120	2
XTP	9	120	4
XTP	9	192	3
XTP	9	192	5
XTP	9	264	2
XTP	9	264	4
XTP	9	336	1
XTP	9	336	6
BST	10	0	1
SCL	10	0	1	96	576	2
BRK	10	0	6
TTP	10	192	0	E	0	M1
TTP	11	0	0	C	0	M1
TTP	11	192	4	E	0	M1
STR	12	0	6
SCR	12	0	6	96	576	5
TTP	12	192	0	E	0	M1
TTP	13	0	0	C	0	M1
TTP	13	192	4	E	0	M1
XHO	14	0	2	72
XHO	14	72	3	72
XHO	14	144	4	72
XHO	14	216	5	72
XHO	14	288	6	72
XHO	14	360	7	72
XHO	15	48	0	72
XHO	15	120	1	72
XHO	15	192	2	72
XTP	15	264	3
TAP	15	336	1
TAP	15	336	4
TAP	16	0	3
TAP	16	48	3
TAP	16	96	4
TAP	16	144	4
TAP	16	192	2
TAP	16	240	2
TAP	16	288	5
TAP	16	336	5
XTP	17	0	3
XTP	17	24	4
XTP	17	48	3
XTP	17	72	4
XTP	17	96	3
XTP	17	120	4
XTP	17	144	3
XTP	17	168	4
THO	17	192	0	96	C	1	M1
XTP	18	0	0
XTP	18	0	7
TAP	18	96	5
TAP	18	144	4
TAP	18	192	6
TAP	18	240	6
TAP	18	288	4
TAP	18	336	3
HLD	19	0	7	96
TAP	19	96	4
TAP	19	144	6
TAP	19	192	3
TAP	19	240	2
TAP	19	288	5
TAP	19	336	4
HLD	20	0	1	96
TAP	20	96	3
TAP	20	144	2
TAP	20	192	6
TAP	20	240	5
TAP	20	288	3
TAP	20	336	6
HLD	21	0	7	96
TAP	21	96	5
TAP	21	144	5
TAP	21	192	4
TAP	21	192	6
TAP	21	288	1
TAP	21	288	3
TAP	22	0	2
TAP	22	0	5
TAP	22	96	1
TAP	22	144	2
TAP	22	192	4
TAP	22	240	2
TAP	22	288	3
TAP	22	336	4
HLD	23	0	0	96
TAP	23	96	3
TAP	23	144	4
TAP	23	192	1
TAP	23	240	5
TAP	23	288	4
TAP	23	336	4
HLD	24	0	7	96
TAP	24	96	5
TAP	24	144	4
HLD	24	192	3	96
TAP	24	288	5
HLD	24	336	5	96
XTP	25	48	3
XTP	25	120	2
XTP	25	120	4
XTP	25	192	3
XTP	25	192	5
XTP	25	264	2
XTP	25	264	4
XTP	25	336	1
XTP	25	336	6
BRK	26	0	1
BRK	26	0	6
TAP	26	96	2
TAP	26	144	3
TAP	26	192	4
TAP	26	240	0
TAP	26	288	0
TAP	26	336	3
HLD	27	0	1	96
TAP	27	96	2
TAP	27	144	2
XHO	27	192	2	48
XHO	27	192	3	48
XHO	27	264	3	48
XHO	27	264	4	48
XHO	27	336	4	96
XHO	27	336	5	96
XTP	28	96	3
XTP	28	96	6
TAP	28	192	7
TAP	28	240	6
TAP	28	288	3
TAP	28	336	3
HLD	29	0	6	96
TAP	29	96	4
TAP	29	144	4
XHO	29	192	4	48
XHO	29	192	5	48
XHO	29	264	3	48
XHO	29	264	4	48
XTP	29	336	2
XTP	29	336	3
XTP	30	0	1
XTP	30	0	4
TAP	30	96	5
TAP	30	144	4
TAP	30	192	3
TAP	30	240	7
TAP	30	288	7
TAP	30	336	4
HLD	31	0	6	96
TAP	31	96	4
TAP	31	144	3
TAP	31	192	5
TAP	31	240	0
TAP	31	288	4
TAP	31	336	3
HLD	32	0	1	96
TAP	32	96	2
TAP	32	144	3
HLD	32	192	4	96
TAP	32	288	3
HLD	32	336	2	96
XTP	33	48	4
XTP	33	120	3
XTP	33	120	5
XTP	33	192	2
XTP	33	192	4
XTP	33	264	3
XTP	33	264	5
XTP	33	336	0
XTP	33	336	7
BRK	34	0	0
BRK	34	0	7
TAP	34	96	1
TAP	34	144	1
TAP	34	192	0
TAP	34	240	2
TAP	34	288	3
TAP	34	336	4
HLD	35	0	1	96
TAP	35	96	3
TAP	35	144	4
TAP	35	192	2
TAP	35	240	7
TAP	35	288	7
TAP	35	336	3
HLD	36	0	6	96
TAP	36	96	4
TAP	36	144	3
TAP	36	192	5
TAP	36	240	1
TAP	36	288	1
TAP	36	336	4
HLD	37	0	2	96
TAP	37	96	3
TAP	37	144	4
TAP	37	192	3
TAP	37	192	5
TAP	37	288	2
TAP	37	288	6
TAP	38	0	3
XHO	38	0	5	72
XHO	38	72	4	72
XHO	38	144	3	72
XHO	38	216	2	72
XHO	38	288	1	72
XHO	38	360	0	72
XHO	39	48	7	72
XHO	39	120	6	72
XHO	39	192	5	72
XTP	39	264	4
TAP	39	336	3
TAP	39	336	6
TAP	40	0	4
TAP	40	48	4
TAP	40	96	3
TAP	40	144	3
TAP	40	192	5
TAP	40	240	5
TAP	40	288	2
TAP	40	336	2
XTP	41	0	4
XTP	41	24	3
XTP	41	48	4
XTP	41	72	3
XTP	41	96	4
XTP	41	120	3
XTP	41	144	4
XTP	41	168	3
THO	41	192	0	96	C	1	M1
XTP	42	0	0
XST	42	0	7
SCL	42	0	7	96	480	0
TTP	42	192	0	E	0	M1
TTP	43	0	0	C	0	M1
TTP	43	192	4	E	0	M1
XTP	43	312	1
XTP	43	312	7
XST	44	0	0
SCR	44	0	0	96	480	7
XTP	44	0	6
TTP	44	192	0	E	0	M1
TTP	45	0	0	C	0	M1
TTP	45	192	4	E	0	M1
XST	46	0	4
SXL	46	0	4	96	432	0
SXR	46	0	4	96	432	0
XTP	47	264	2
XTP	47	264	6
XTP	47	312	2
XTP	47	312	6
XST	48	0	0
SV_	48	0	0	96	192	2
XST	48	0	4
SV_	48	0	4	96	192	6
XHO	49	0	0	48
XHO	49	0	7	48
XHO	49	72	1	48
XHO	49	72	6	48
XHO	49	144	2	48
XHO	49	144	5	48
XTP	49	216	3
XTP	49	216	4
XTP	49	288	3
XTP	49	312	4
XTP	50	0	2
XST	50	0	5
SCR	50	0	5	96	1248	4
TTP	50	192	6	E	0	M1
TTP	51	0	7	E	0	M1
TTP	51	192	0	E	0	M1
TTP	52	0	1	E	0	M1
TTP	52	192	2	E	0	M1
TTP	53	0	3	E	0	M1
TTP	53	192	4	E	0	M1
XTP	53	336	2
XTP	53	360	3
XHO	54	0	1	72
XHO	54	72	0	72
XHO	54	144	7	72
XHO	54	216	6	72
XHO	54	288	5	72
XHO	54	360	4	72
XHO	55	48	3	72
XHO	55	120	2	72
XHO	55	192	1	72
XTP	55	264	0
XTP	55	336	2
XTP	55	336	7
TAP	56	0	0
TAP	56	48	0
TAP	56	96	7
TAP	56	144	7
TAP	56	192	1
TAP	56	240	1
TAP	56	288	6
TAP	56	336	6
XTP	57	0	0
XTP	57	24	7
XTP	57	48	0
XTP	57	72	7
XTP	57	96	0
XTP	57	120	7
XTP	57	144	0
XTP	57	168	7
THO	57	192	0	192	C	1	M1
TTP	58	0	1	B	0	M1
TTP	58	0	6	B	0	M1
STR	58	192	0
SLR	58	192	0	96	216	6
STR	58	192	7
SCR	58	192	7	96	216	6
XTP	59	192	0
XTP	59	192	5
TAP	59	288	2
TAP	59	288	3
HLD	60	0	1	144
HLD	60	0	4	144
STR	60	192	4
SLR	60	192	4	96	216	1
STR	60	192	5
SXL	60	192	5	96	216	2
HLD	61	192	1	48
HLD	61	192	4	48
HLD	61	264	2	48
HLD	61	264	5	48
TAP	61	336	3
TAP	61	336	6
HLD	62	0	4	144
HLD	62	0	7	144
STR	62	192	2
SCL	62	192	2	96	216	5
STR	62	192	5
SXR	62	192	5	96	216	2
TAP	63	192	0
TAP	63	192	7
TAP	63	288	2
TAP	63	288	3
HLD	64	0	1	144
HLD	64	0	4	144
STR	64	192	0
SXL	64	192	0	96	216	7
STR	64	192	5
SXR	64	192	5	96	216	2
TTP	65	192	0	B	0	M1
TTP	65	192	0	C	1	M1
TTP	65	192	1	B	0	M1
TTP	65	192	4	B	0	M1
TTP	65	192	5	B	0	M1
HLD	66	0	6	144
HLD	66	0	7	144
STR	66	192	0
SLR	66	192	0	96	216	7
STR	66	192	5
SUL	66	192	5	96	216	4
TAP	67	192	2
TAP	67	192	6
TAP	67	288	3
TAP	67	288	4
HLD	68	0	0	144
HLD	68	0	2	144
STR	68	192	4
SSL	68	192	4	96	216	0
STR	68	192	6
SXR	68	192	6	96	216	3
HLD	69	192	1	48
HLD	69	192	4	48
HLD	69	264	2	48
HLD	69	264	5	48
TAP	69	336	3
TAP	69	336	6
HLD	70	0	4	144
HLD	70	0	7	144
STR	70	192	3
SCL	70	192	3	96	216	5
STR	70	192	6
SSL	70	192	6	96	216	2
TAP	71	192	0
TAP	71	192	6
TAP	71	288	2
TAP	71	288	4
HLD	72	0	0	144
HLD	72	0	3	144
STR	72	192	1
SUR	72	192	1	96	288	2
STR	72	192	2
SCR	72	192	2	96	288	1
BRK	73	288	1
BRK	73	288	6
HLD	74	0	2	72
TAP	74	0	5
TAP	74	72	3
TAP	74	96	1
TAP	74	144	1
HLD	74	192	5	72
TAP	74	264	4
TAP	74	288	6
TAP	74	336	6
HLD	75	0	1	72
TAP	75	72	0
TAP	75	96	2
TAP	75	144	2
TAP	75	192	7
TAP	75	240	6
TAP	75	288	0
TAP	75	288	5
HLD	76	0	1	72
TAP	76	72	0
TAP	76	96	2
TAP	76	144	2
HLD	76	192	6	72
TAP	76	264	7
TAP	76	288	5
TAP	76	336	5
HLD	77	0	2	72
HLD	77	0	3	72
HLD	77	96	1	72
HLD	77	96	4	72
XTP	77	192	0
XTP	77	192	5
BRK	77	264	2
BRK	77	264	7
TAP	78	0	1
HLD	78	0	5	72
TAP	78	72	4
TAP	78	96	6
TAP	78	144	6
HLD	78	192	2	72
TAP	78	264	3
TAP	78	288	1
TAP	78	336	1
HLD	79	0	6	72
TAP	79	72	7
TAP	79	96	5
TAP	79	144	5
TAP	79	192	0
TAP	79	240	1
TAP	79	288	2
TAP	79	288	7
STR	80	0	0
SI_	80	0	0	96	48	4
STR	80	0	5
SI_	80	0	5	96	48	7
STR	80	192	2
SI_	80	192	2	96	48	0
STR	80	192	7
SI_	80	192	7	96	48	3
HLD	81	0	1	48
HLD	81	0	4	48
HLD	81	72	3	48
HLD	81	72	6	48
HLD	81	144	2	48
HLD	81	144	7	48
HLD	81	216	0	48
HLD	81	216	5	48
BRK	81	288	1
BRK	81	288	6
HLD	82	0	2	72
TAP	82	72	3
TAP	82	96	1
TAP	82	144	0
TAP	82	144	4
HLD	82	192	5	72
TAP	82	264	4
TAP	82	288	6
TAP	82	336	3
TAP	82	336	7
HLD	83	0	1	72
TAP	83	72	0
TAP	83	96	2
TAP	83	144	3
TAP	83	144	7
HLD	83	192	4	48
HLD	83	192	6	48
HLD	83	264	1	48
HLD	83	264	3	48
XTP	83	336	2
XHO	83	336	5	120
TAP	84	72	4
TAP	84	96	6
TAP	84	144	3
TAP	84	144	7
HLD	84	192	2	72
TAP	84	264	3
TAP	84	288	1
TAP	84	336	0
TAP	84	336	4
XHO	85	0	2	72
XHO	85	0	6	72
XHO	85	96	1	72
XHO	85	96	5	72
XTP	85	192	6
XTP	85	192	7
XTP	85	264	3
XTP	85	264	4
XTP	85	336	0
XTP	85	336	1
XHO	86	0	2	72
XTP	86	0	7
TAP	86	72	3
TAP	86	96	1
TAP	86	144	0
TAP	86	144	4
HLD	86	192	5	72
TAP	86	264	4
TAP	86	288	6
TAP	86	336	3
TAP	86	336	7
HLD	87	0	1	72
TAP	87	72	0
TAP	87	96	2
TAP	87	144	3
TAP	87	144	7
TAP	87	192	4
TAP	87	192	5
TAP	87	240	4
TAP	87	240	5
BRK	87	288	3
BRK	87	288	6
STR	88	0	1
SI_	88	0	1	96	48	3
STR	88	0	4
SI_	88	0	4	96	48	0
STR	88	192	3
SI_	88	192	3	96	48	7
STR	88	192	6
SI_	88	192	6	96	48	4
XTP	89	48	3
XTP	89	48	4
XTP	89	120	1
XTP	89	120	2
XTP	89	192	0
XTP	89	192	7
XTP	89	264	5
XTP	89	264	6
XTP	89	336	3
XTP	89	336	4
BST	90	0	1
SCL	90	0	1	96	288	2
BRK	90	0	6

T_REC_TAP	211
T_REC_BRK	14
T_REC_XTP	111
T_REC_HLD	69
T_REC_XHO	49
T_REC_STR	25
T_REC_BST	2
T_REC_XST	10
T_REC_TTP	26
T_REC_THO	3
T_REC_SLD	38
T_REC_ALL	558
T_NUM_TAP	383
T_NUM_BRK	16
T_NUM_HLD	121
T_NUM_SLD	38
T_NUM_ALL	558
T_JUDGE_TAP	399
T_JUDGE_HLD	227
T_JUDGE_SLD	38
T_JUDGE_ALL	664
TTM_EACHPAIRS	124
TTM_SCR_TAP	191500
TTM_SCR_BRK	41600
TTM_SCR_HLD	121000
TTM_SCR_SLD	57000
TTM_SCR_ALL	411100
TTM_SCR_S	397250
TTM_SCR_SS	409500
TTM_RAT_ACV	10039

