VERSION	0.00.00	1.03.00
FES_MODE	0
BPM_DEF	156.000	156.000	156.000	156.000
MET_DEF	4	4
RESOLUTION	384
CLK_DEF	384
COMPATIBLE_CODE	MA2

BPM	0	0	156.000
MET	0	0	4	4

XST	2	0	0
SXL	2	0	0	96	480	3
XST	4	0	4
SXL	4	0	4	96	480	7
XST	6	0	0
SCR	6	0	0	96	480	5
XST	8	0	7
SCL	8	0	7	96	192	4
XTP	9	48	3
XTP	9	120	3
XTP	9	192	4
XTP	9	264	4
XTP	9	336	2
XHO	10	0	2	192
TAP	10	192	3
HLD	11	0	5	192
TAP	11	192	4
HLD	12	0	2	192
TAP	12	192	3
TAP	13	0	4
TAP	13	96	4
TAP	13	192	3
TAP	13	192	5
STR	14	0	1
SLR	14	0	1	96	480	7
STR	14	0	6
SLL	14	0	6	96	480	0
TAP	16	0	1
TAP	16	96	0
TAP	16	96	1
TAP	16	192	6
TAP	16	288	6
TAP	16	288	7
TAP	17	0	0
TAP	17	48	0
TAP	17	96	7
TAP	17	144	7
BRK	17	192	1
BRK	17	192	6
TAP	18	0	2
TAP	18	96	2
TAP	18	192	2
TAP	18	192	3
TAP	19	0	5
TAP	19	96	5
TAP	19	192	4
TAP	19	192	5
TAP	20	0	6
TAP	20	96	6
TAP	20	192	6
TAP	20	192	7
TAP	21	0	0
TAP	21	0	7
TAP	21	96	0
TAP	21	96	7
XTP	21	192	1
XTP	21	192	6
HLD	22	0	2	96
TAP	22	96	3
TAP	22	192	2
TAP	22	192	3
HLD	23	0	5	96
TAP	23	96	4
TAP	23	192	4
TAP	23	192	5
XTP	24	0	6
XTP	24	0	7
XTP	24	96	6
XTP	24	96	7
XTP	24	192	0
XTP	24	192	1
XTP	24	288	0
XTP	24	288	1
XTP	25	0	0
XTP	25	0	7
XTP	25	96	0
XTP	25	96	7
BRK	25	192	1
BRK	25	192	6
TAP	26	0	2
TAP	26	96	2
TAP	26	96	3
TAP	26	192	1
TAP	26	192	4
TAP	27	0	5
TAP	27	96	4
TAP	27	96	5
XTP	27	192	3
XTP	27	192	6
TAP	28	0	6
XTP	28	96	6
XTP	28	96	7
TAP	28	192	0
TAP	28	192	5
TAP	29	0	0
TAP	29	0	7
XTP	29	96	1
XTP	29	96	6
XTP	29	192	2
XTP	29	192	5
XTP	29	288	3
XTP	29	288	4
TAP	30	0	5
TAP	30	96	4
TAP	30	96	5
TAP	30	192	3
TAP	30	192	6
TAP	31	0	2
TAP	31	96	2
TAP	31	96	3
TAP	31	192	1
TAP	31	192	4
XTP	32	0	0
XTP	32	0	1
XTP	32	96	0
XTP	32	96	7
XTP	32	192	6
XTP	32	192	7
XTP	32	288	0
XTP	32	288	7
XTP	33	0	1
XTP	33	0	6
XTP	33	96	1
XTP	33	96	6
BRK	33	192	1
BRK	33	192	6
HLD	34	0	1	96
TAP	34	96	0
TAP	34	192	0
TAP	34	192	1
TAP	34	288	2
TAP	34	288	7
HLD	35	0	6	96
TAP	35	96	7
TAP	35	192	6
TAP	35	192	7
TAP	35	288	0
TAP	35	288	5
HLD	36	0	5	96
TAP	36	96	4
TAP	36	192	4
TAP	36	192	5
TAP	36	288	3
TAP	36	288	6
HLD	37	0	2	96
TAP	37	96	3
TAP	37	192	2
TAP	37	192	3
TAP	37	288	3
TAP	37	288	4
XST	38	0	2
SLL	38	0	2	96	480	4
XST	38	0	5
SLR	38	0	5	96	480	3
TAP	40	0	2
TAP	40	48	2
TAP	40	96	2
TAP	40	192	1
TAP	40	240	1
TAP	40	288	1
TAP	41	0	0
TAP	41	48	0
TAP	41	96	7
TAP	41	144	7
BRK	41	192	1
BRK	41	192	6
THO	42	0	0	384	C	0	L1
TTP	42	0	2	B	0	L1
TTP	42	0	5	B	0	L1
THO	44	0	0	384	C	0	L1
TTP	44	0	1	B	0	L1
TTP	44	0	6	B	0	L1
TTP	46	0	0	B	0	L1
TTP	46	0	1	B	0	L1
TTP	47	0	2	B	0	L1
TTP	47	0	3	B	0	L1
TTP	48	0	4	B	0	L1
TTP	48	0	5	B	0	L1
TTP	49	0	1	B	0	L1
TTP	49	0	6	B	0	L1
HLD	50	0	2	192
HLD	50	192	3	192
HLD	51	0	4	192
XTP	51	192	5
HLD	52	0	6	192
HLD	52	192	7	192
HLD	53	0	0	192
XTP	53	192	1
XST	54	0	1
SCL	54	0	1	96	576	2
XTP	56	0	1
TAP	56	48	1
TAP	56	96	0
TAP	56	192	6
TAP	56	240	6
TAP	56	288	7
TAP	57	0	0
TAP	57	48	0
TAP	57	96	7
TAP	57	144	7
BRK	57	192	1
BRK	57	192	6
TAP	58	0	2
TAP	58	0	4
TAP	58	96	5
TAP	58	192	6
STR	58	288	7
SSR	58	288	7	96	192	3
TAP	60	0	2
TAP	60	0	3
TAP	60	96	2
TAP	60	192	1
STR	60	288	0
SSL	60	288	0	96	192	4
TAP	62	0	4
TAP	62	0	5
TAP	62	96	5
TAP	62	192	6
STR	62	288	7
SSR	62	288	7	96	192	3
TAP	64	0	2
TAP	64	0	4
TAP	64	96	2
TAP	64	96	4
TAP	64	192	1
TAP	64	192	5
STR	64	288	1
SI_	64	288	1	96	144	4
STR	64	288	5
SI_	64	288	5	96	144	0
TAP	66	0	3
TAP	66	0	7
TAP	66	96	6
TAP	66	192	5
TAP	66	288	2
STR	66	288	4
SSL	66	288	4	96	192	0
TAP	68	0	0
TAP	68	0	1
TAP	68	96	1
TAP	68	192	2
STR	68	288	3
SSR	68	288	3	96	192	7
TAP	68	288	5
TAP	70	0	6
TAP	70	0	7
TAP	70	96	6
TAP	70	192	5
TAP	70	288	2
STR	70	288	4
SSL	70	288	4	96	192	0
TAP	72	0	0
TAP	72	0	1
TAP	72	96	0
TAP	72	96	1
TAP	72	192	2
TAP	72	192	7
TAP	72	288	2
STR	72	288	7
SCL	72	288	7	96	240	2
TAP	74	0	1
TAP	74	96	0
TAP	74	96	1
TAP	74	192	6
TAP	74	288	6
TAP	74	288	7
TAP	75	0	5
TAP	75	96	4
TAP	75	192	3
TAP	75	192	5
TAP	76	0	2
TAP	76	96	2
TAP	76	96	3
TAP	76	192	5
TAP	76	288	4
TAP	76	288	5
TAP	77	0	6
TAP	77	96	0
TAP	77	96	7
XTP	77	192	1
XTP	77	192	6
TAP	78	0	2
TAP	78	96	2
TAP	78	96	3
TAP	78	192	5
TAP	78	288	4
TAP	78	288	5
TAP	79	0	6
TAP	79	96	7
TAP	79	192	0
TAP	79	192	6
XTP	80	0	2
XTP	80	0	5
XTP	80	192	1
XTP	80	192	6
TAP	81	0	0
TAP	81	0	7
TAP	81	96	0
TAP	81	96	7
BRK	81	192	1
BRK	81	192	6
TAP	82	0	0
TAP	82	0	1
TAP	82	96	0
TAP	82	96	1
TAP	82	192	2
TAP	82	192	3
TAP	82	288	2
TAP	82	288	3
TAP	83	0	4
TAP	83	0	5
TAP	83	96	4
TAP	83	96	5
XTP	83	192	3
XTP	83	192	6
TAP	84	0	6
TAP	84	0	7
TAP	84	96	6
TAP	84	96	7
TAP	84	192	4
TAP	84	192	5
TAP	84	288	4
TAP	84	288	5
TAP	85	0	2
TAP	85	0	3
TAP	85	96	3
TAP	85	96	4
XTP	85	192	2
XTP	85	192	5
TAP	86	0	4
TAP	86	0	5
TAP	86	96	4
TAP	86	96	5
TAP	86	192	2
TAP	86	192	3
TAP	86	288	2
TAP	86	288	3
TAP	87	0	0
TAP	87	0	1
TAP	87	96	0
TAP	87	96	1
XTP	87	192	2
XTP	87	192	7
XHO	88	0	6	96
XHO	88	0	7	96
XHO	88	192	0	96
XHO	88	192	1	96
TAP	89	0	6
TAP	89	0	7
TAP	89	96	0
TAP	89	96	7
TAP	89	192	0
TAP	89	192	1
TAP	89	288	0
TAP	89	288	7
BST	90	0	1
SV_	90	0	1	96	288	4
BST	90	0	6
SV_	90	0	6	96	288	3

T_REC_TAP	218
T_REC_BRK	12
T_REC_XTP	56
T_REC_HLD	14
T_REC_XHO	5
T_REC_STR	11
T_REC_BST	2
T_REC_XST	7
T_REC_TTP	12
T_REC_THO	2
T_REC_SLD	20
T_REC_ALL	359
T_NUM_TAP	304
T_NUM_BRK	14
T_NUM_HLD	21
T_NUM_SLD	20
T_NUM_ALL	359
T_JUDGE_TAP	318
T_JUDGE_HLD	72
T_JUDGE_SLD	20
T_JUDGE_ALL	410
TTM_EACHPAIRS	112
TTM_SCR_TAP	152000
TTM_SCR_BRK	36400
TTM_SCR_HLD	21000
TTM_SCR_SLD	30000
TTM_SCR_ALL	239400
TTM_SCR_S	230900
TTM_SCR_SS	238000
TTM_RAT_ACV	10058

