VERSION	0.00.00	1.03.00
FES_MODE	0
BPM_DEF	156.000	156.000	156.000	156.000
MET_DEF	4	4
RESOLUTION	384
CLK_DEF	384
COMPATIBLE_CODE	MA2

BPM	0	0	156.000
MET	0	0	4	4

XTP	2	0	3
XTP	4	0	4
XTP	6	0	3
XTP	8	0	4
TTP	10	0	3	B	0	L1
TTP	11	0	4	B	0	L1
TTP	12	0	2	B	0	L1
TTP	13	0	5	B	0	L1
THO	14	0	0	768	C	1	L1
XTP	17	192	0
XTP	18	0	0
XTP	18	0	7
TAP	18	192	0
TAP	19	0	1
TAP	19	192	1
TAP	20	0	2
TAP	20	192	2
XTP	21	0	2
XTP	21	0	3
XTP	22	0	4
TAP	22	192	4
TAP	23	0	5
TAP	23	192	5
TAP	24	0	6
TAP	24	192	6
XTP	25	0	6
XTP	25	0	7
TAP	26	0	7
TAP	26	192	7
TAP	27	0	6
TAP	27	192	6
TAP	28	0	5
TAP	28	192	5
XTP	29	0	3
XTP	29	0	4
TAP	30	0	3
TAP	30	192	3
TAP	31	0	2
TAP	31	192	2
TAP	32	0	1
TAP	32	192	1
XTP	33	0	0
XTP	33	0	1
TTP	34	0	0	B	0	L1
TTP	34	0	1	B	0	L1
TTP	35	0	6	B	0	L1
TTP	35	0	7	B	0	L1
TTP	36	0	4	B	0	L1
TTP	36	0	5	B	0	L1
TTP	37	0	2	B	0	L1
TTP	37	0	3	B	0	L1
THO	38	0	0	768	C	1	L1
XTP	41	192	7
STR	42	0	7
SI_	42	0	7	96	288	3
STR	44	0	0
SI_	44	0	0	96	288	4
STR	46	0	6
SI_	46	0	6	96	288	3
STR	48	0	1
SI_	48	0	1	96	288	4
HLD	50	0	7	384
HLD	52	0	0	384
THO	54	0	0	768	C	1	L1
XTP	57	192	0
XTP	57	192	7
HLD	58	0	1	288
XTP	59	192	1
HLD	60	0	2	288
XTP	61	192	2
HLD	62	0	2	288
HLD	62	0	3	288
XTP	63	192	2
XTP	63	192	3
HLD	64	0	4	288
HLD	64	0	5	288
BRK	65	192	4
BRK	65	192	5
TAP	66	0	6
TAP	66	192	6
TAP	67	0	5
TAP	67	192	4
TAP	67	192	6
TAP	68	0	3
TAP	68	192	3
TAP	69	0	2
TAP	69	192	1
TAP	69	192	3
TAP	70	0	4
TAP	70	192	4
TAP	71	0	5
TAP	71	192	4
TAP	71	192	6
TAP	72	0	7
TAP	72	192	7
XTP	73	0	0
XTP	73	192	0
XTP	73	192	7
TAP	74	0	1
TAP	74	96	1
TAP	74	192	1
TAP	75	0	2
TAP	75	96	2
TAP	75	192	2
TAP	76	0	3
TAP	76	96	3
TAP	76	192	3
TAP	77	0	4
TAP	77	96	4
TAP	77	192	3
TAP	77	192	4
TAP	78	0	5
TAP	78	96	5
TAP	78	192	5
TAP	79	0	6
TAP	79	96	6
TAP	79	192	6
HLD	80	0	7	192
BRK	81	0	0
BRK	81	0	7
TAP	82	0	6
TAP	82	96	6
TAP	82	192	6
TAP	82	288	6
TAP	83	0	5
TAP	83	96	5
TAP	83	192	4
TAP	83	192	5
TAP	84	0	4
TAP	84	96	4
TAP	84	192	4
TAP	84	288	4
TAP	85	0	3
TAP	85	96	3
TAP	85	192	2
TAP	85	192	3
TAP	86	0	2
TAP	86	96	2
TAP	86	192	2
TAP	86	288	2
TAP	87	0	1
TAP	87	96	1
TAP	87	192	0
TAP	87	192	1
TAP	88	0	0
TAP	88	0	7
TAP	88	192	0
TAP	88	192	7
TAP	89	0	0
TAP	89	96	7
TAP	89	192	0
TAP	89	192	7
BRK	90	0	1
BRK	90	0	6

T_REC_TAP	90
T_REC_BRK	6
T_REC_XTP	26
T_REC_HLD	9
T_REC_XHO	0
T_REC_STR	4
T_REC_BST	0
T_REC_XST	0
T_REC_TTP	12
T_REC_THO	3
T_REC_SLD	4
T_REC_ALL	154
T_NUM_TAP	132
T_NUM_BRK	6
T_NUM_HLD	12
T_NUM_SLD	4
T_NUM_ALL	154
T_JUDGE_TAP	138
T_JUDGE_HLD	104
T_JUDGE_SLD	4
T_JUDGE_ALL	246
TTM_EACHPAIRS	23
TTM_SCR_TAP	66000
TTM_SCR_BRK	15600
TTM_SCR_HLD	12000
TTM_SCR_SLD	6000
TTM_SCR_ALL	99600
TTM_SCR_S	96050
TTM_SCR_SS	99000
TTM_RAT_ACV	10060

