VERSION	0.00.00	1.03.00
FES_MODE	0
BPM_DEF	200.000	200.000	200.000	200.000
MET_DEF	4	4
RESOLUTION	384
CLK_DEF	384
COMPATIBLE_CODE	MA2

BPM	0	0	200.000
MET	0	0	4	4

TAP	1	0	2
TAP	1	0	3
TAP	1	96	4
TAP	1	96	5
TAP	1	192	1
TAP	1	192	2
TAP	1	288	5
TAP	1	288	6
TAP	2	0	0
TAP	2	0	7
TAP	2	48	0
TAP	2	48	7
TAP	2	96	0
TAP	2	96	7
TAP	2	144	1
TAP	2	144	6
STR	2	192	0
SSL	2	192	0	96	48	4
STR	2	192	7
SSR	2	192	7	96	48	3
BRK	2	288	0
BRK	2	288	7
XTP	3	0	1
XTP	3	0	2
XTP	3	96	3
XTP	3	96	4
XTP	3	192	5
XTP	3	192	6
XTP	3	288	3
XTP	3	288	4
TAP	3	336	2
XTP	4	0	1
XTP	4	0	7
XTP	4	96	2
XTP	4	96	3
XTP	4	192	3
XTP	4	192	4
TAP	4	240	5
XTP	4	288	0
XTP	4	288	6
TAP	4	336	1
TAP	4	360	2
XTP	5	0	3
XTP	5	0	4
XTP	5	96	4
XTP	5	96	6
XTP	5	192	2
XTP	5	192	3
TAP	5	240	1
TAP	5	240	4
XTP	5	288	0
XTP	5	288	5
STR	6	0	0
SI_	6	0	0	96	48	4
TAP	6	0	1
TAP	6	96	3
STR	6	144	3
SI_	6	144	3	96	48	7
TAP	6	240	4
BRK	6	288	4
XTP	7	0	5
XTP	7	0	6
XTP	7	96	1
XTP	7	96	2
XTP	7	192	3
XTP	7	192	7
XTP	7	288	1
XTP	7	288	5
TAP	7	336	1
TAP	7	336	5
TAP	7	360	2
TAP	7	360	6
TAP	8	0	3
STR	8	0	7
SCR	8	0	7	96	48	2
TAP	8	96	5
STR	8	144	3
SCR	8	144	3	96	48	6
TAP	8	240	1
BRK	8	288	1
XTP	9	0	3
XTP	9	0	7
TAP	9	48	2
TAP	9	48	6
XTP	9	96	1
XTP	9	96	5
TAP	9	144	0
TAP	9	144	4
XTP	9	192	1
XTP	9	192	5
TAP	9	224	1
TAP	9	224	5
TAP	9	256	1
TAP	9	256	5
XTP	9	288	2
XTP	9	288	6
TAP	9	320	2
TAP	9	320	6
TAP	9	352	2
TAP	9	352	6
XHO	10	0	3	264
XHO	10	0	7	264
TTP	10	288	3	E	0	M1
TTP	10	288	7	E	0	M1
TTP	10	300	2	B	0	M1
TTP	10	300	6	B	0	M1
TTP	10	312	1	B	0	M1
TTP	10	312	5	B	0	M1
TTP	10	324	1	E	0	M1
TTP	10	324	5	E	0	M1
XST	11	0	0
SI_	11	0	0	96	48	2
XST	11	0	4
SI_	11	0	4	96	48	6
TAP	11	192	3
TAP	11	192	7
TAP	11	288	2
STR	11	288	4
SI_	11	288	4	96	48	0
TAP	11	336	5
TAP	12	0	6
STR	12	96	3
SI_	12	96	3	96	48	7
TAP	12	96	5
TAP	12	144	2
TAP	12	192	1
TTP	12	288	0	B	0	M1
TTP	12	288	6	B	0	M1
TTP	12	312	1	B	0	M1
TTP	12	312	5	B	0	M1
TTP	12	336	2	B	0	M1
TTP	12	336	4	B	0	M1
XST	13	0	3
SI_	13	0	3	96	48	1
SI_	13	0	3	96	48	5
TAP	13	96	3
XST	13	192	4
SI_	13	192	4	96	48	1
SI_	13	192	4	96	48	7
TAP	13	288	4
XST	14	0	3
SF_	14	0	3	96	48	7
TAP	14	96	3
XTP	14	192	1
XTP	14	192	5
XTP	14	264	2
XTP	14	264	4
XTP	14	336	3
XTP	14	336	5
STR	15	0	6
SI_	15	0	6	96	48	4
STR	15	0	7
SI_	15	0	7	96	48	3
XTP	15	96	6
XTP	15	96	7
STR	15	192	0
SI_	15	192	0	96	48	4
STR	15	192	1
SI_	15	192	1	96	48	3
XTP	15	288	0
XTP	15	288	1
STR	16	0	7
SI_	16	0	7	96	48	5
XTP	16	48	3
STR	16	96	7
SI_	16	96	7	96	48	1
XTP	16	144	3
STR	16	192	7
SI_	16	192	7	96	48	5
XTP	16	240	3
BRK	16	288	7
TAP	17	0	0
TAP	17	16	1
TAP	17	32	2
TAP	17	48	3
TAP	17	64	4
TAP	17	80	5
TAP	17	96	6
TAP	17	112	7
TAP	17	128	0
TAP	17	144	1
TAP	17	160	2
TAP	17	176	3
TAP	17	192	4
TAP	17	208	5
TAP	17	224	6
TAP	17	240	7
TAP	17	256	0
TAP	17	272	1
TAP	17	288	2
TAP	17	304	3
TAP	17	320	4
TAP	17	336	5
TAP	17	352	6
TAP	17	368	7
XTP	18	0	0
STR	18	96	7
SF_	18	96	7	96	48	3
XTP	18	192	7
BRK	18	288	1
BRK	18	288	5
TAP	19	0	0
STR	19	48	1
SI_	19	48	1	96	48	5
TAP	19	48	7
TAP	19	96	2
TAP	19	144	1
TAP	19	144	3
TAP	19	240	0
STR	19	240	6
SI_	19	240	6	96	48	2
TAP	19	288	5
TAP	19	336	4
TAP	19	336	6
TAP	20	48	0
HLD	20	96	1	48
HLD	20	144	3	48
HLD	20	192	5	48
TAP	20	240	7
TAP	20	288	0
TAP	20	288	7
TAP	20	336	0
TAP	20	336	7
TAP	21	0	1
TAP	21	48	0
STR	21	48	6
SI_	21	48	6	96	48	2
TAP	21	96	5
TAP	21	144	4
XTP	21	144	6
TAP	21	240	0
TAP	21	240	1
TAP	21	336	4
TAP	21	336	5
TAP	22	0	2
TAP	22	24	3
TAP	22	48	2
TAP	22	72	1
TAP	22	96	2
TAP	22	144	5
TAP	22	168	4
TAP	22	192	5
TAP	22	216	6
TAP	22	240	5
TTP	22	288	3	E	0	M1
TTP	22	312	5	E	0	M1
TTP	22	336	1	E	0	M1
TTP	22	360	7	E	0	M1
TAP	23	0	3
TAP	23	48	3
TAP	23	72	4
BRK	23	96	2
BRK	23	96	5
TAP	23	192	0
STR	23	240	1
SI_	23	240	1	96	48	5
TAP	23	240	7
TAP	23	288	2
TAP	23	336	1
TAP	23	336	3
TAP	24	48	7
HLD	24	96	6	48
HLD	24	144	4	48
HLD	24	192	2	48
TAP	24	240	0
TAP	24	288	0
TAP	24	288	7
TAP	24	336	0
TAP	24	336	7
STR	25	0	6
SI_	25	0	6	96	48	3
TAP	25	48	6
STR	25	96	1
SI_	25	96	1	96	48	4
TAP	25	144	1
TAP	25	192	7
TAP	25	240	7
TAP	25	288	6
TAP	25	312	1
TAP	25	336	5
TAP	25	360	2
HLD	26	0	4	96
TAP	26	96	3
TAP	26	144	3
TAP	26	144	4
BRK	26	240	2
BRK	26	240	5
BRK	26	264	1
BRK	26	264	6
BST	26	288	0
SI_	26	288	0	96	48	3
BST	26	288	7
SI_	26	288	7	96	48	4
XTP	27	0	0
XTP	27	0	7
HLD	27	96	2	48
HLD	27	96	5	48
HLD	27	168	3	48
HLD	27	168	6	48
TAP	27	240	4
TAP	27	240	7
STR	27	288	0
SI_	27	288	0	96	48	4
TAP	27	288	5
XTP	27	336	1
TAP	28	0	0
TAP	28	0	6
HLD	28	96	2	48
HLD	28	96	5	48
HLD	28	168	1	48
HLD	28	168	4	48
TAP	28	240	0
TAP	28	240	3
TAP	28	288	2
BST	28	288	7
SI_	28	288	7	96	48	3
BRK	28	336	6
TAP	29	0	1
TAP	29	0	7
HLD	29	96	2	48
HLD	29	96	5	48
HLD	29	168	3	48
HLD	29	168	6	48
TAP	29	240	4
TAP	29	240	7
TAP	29	288	0
TAP	29	336	0
XTP	30	0	1
XTP	30	0	7
XTP	30	48	1
XTP	30	48	7
BST	30	96	2
SF_	30	96	2	96	96	6
BRK	30	96	6
BRK	30	144	2
BRK	30	144	6
XTP	31	0	7
XTP	31	12	0
XTP	31	24	1
XTP	31	36	2
XHO	31	48	3	72
HLD	31	96	4	48
HLD	31	168	4	48
HLD	31	168	6	48
HLD	31	240	3	48
HLD	31	240	4	24
HLD	31	312	1	24
HLD	31	312	3	48
HLD	32	0	3	48
HLD	32	0	4	24
HLD	32	72	5	48
HLD	32	72	7	24
HLD	32	144	3	24
HLD	32	144	4	48
HLD	32	216	0	24
HLD	32	216	2	48
TAP	32	288	7
TAP	32	336	7
TAP	33	0	2
TAP	33	0	6
TAP	33	48	1
TAP	33	48	5
TAP	33	96	0
TAP	33	144	1
TAP	33	192	5
TAP	33	216	4
TAP	33	240	6
TAP	33	264	2
STR	33	288	3
SUR	33	288	3	96	168	5
TAP	33	312	1
TAP	33	336	5
TAP	33	360	3
TAP	34	0	4
TTP	34	192	0	C	1	M1
TTP	34	192	2	E	0	M1
TTP	34	192	6	E	0	M1
XTP	34	288	7
BST	35	0	1
SI_	35	0	1	96	48	3
BRK	35	0	6
TAP	35	96	5
TAP	35	144	5
HLD	35	192	4	48
TAP	35	192	6
TAP	35	240	6
TAP	35	288	3
HLD	35	288	5	48
TAP	35	336	3
HLD	36	0	2	48
TAP	36	0	4
TAP	36	48	4
TAP	36	96	1
STR	36	96	3
SI_	36	96	3	96	48	7
TAP	36	144	1
TAP	36	192	0
TAP	36	240	0
TAP	36	288	1
TAP	36	288	5
XTP	36	336	2
XTP	36	336	4
TAP	37	0	5
TAP	37	48	5
TAP	37	96	4
TAP	37	144	3
TAP	37	144	6
TAP	37	192	7
STR	37	240	7
SI_	37	240	7	96	48	3
TAP	37	288	2
HLD	37	336	2	96
TAP	38	48	4
TAP	38	96	0
TAP	38	96	1
TAP	38	144	6
TAP	38	144	7
STR	38	192	4
SI_	38	192	4	96	48	0
STR	38	192	5
SCL	38	192	5	96	48	2
XTP	38	288	4
XTP	38	288	5
TAP	39	0	7
TAP	39	48	0
TAP	39	96	1
TAP	39	96	6
TAP	39	144	2
TAP	39	168	3
TAP	39	192	2
TAP	39	240	1
STR	39	240	3
SI_	39	240	3	96	48	6
STR	39	336	0
SCR	39	336	0	96	48	3
XTP	40	48	7
XTP	40	64	6
XTP	40	80	5
XTP	40	96	4
TAP	40	192	2
TAP	40	192	3
BRK	40	240	1
TAP	40	240	4
TAP	40	312	3
BRK	40	312	6
BRK	41	0	0
BRK	41	0	7
TAP	41	96	1
TAP	41	96	3
TAP	41	144	2
TAP	41	192	4
TAP	41	192	6
STR	41	240	5
SI_	41	240	5	96	48	0
TAP	41	288	3
XTP	41	336	2
STR	42	48	1
SI_	42	48	1	96	48	5
TAP	42	96	0
TAP	42	144	1
STR	42	192	6
SI_	42	192	6	96	48	2
TAP	42	240	7
XTP	42	288	0
TAP	42	288	6
BRK	43	0	1
BRK	43	0	3
TAP	43	48	0
TAP	43	96	4
TAP	43	96	6
TAP	43	144	7
TAP	43	192	1
TAP	43	192	3
TAP	43	240	0
TAP	43	288	4
TAP	43	288	6
TAP	43	336	7
STR	44	0	1
SI_	44	0	1	96	48	3
TAP	44	48	1
STR	44	96	7
SI_	44	96	7	96	48	5
TAP	44	144	7
TAP	44	192	0
TAP	44	240	0
TAP	44	256	1
TAP	44	272	2
TAP	44	288	3
HLD	44	288	6	432
TTP	45	0	6	E	0	M1
TTP	45	48	5	E	0	M1
TTP	45	96	7	E	0	M1
TTP	45	144	0	C	0	M1
TTP	45	192	3	E	0	M1
TTP	45	240	1	E	0	M1
TTP	45	288	4	E	0	M1
TTP	45	336	7	E	0	M1
TAP	46	48	5
TAP	46	54	4
TAP	46	144	3
TAP	46	150	2
TAP	46	240	0
TAP	46	240	1
TAP	46	288	2
TAP	46	288	7
BRK	47	0	4
BRK	47	0	5
TAP	47	48	6
TAP	47	96	2
TAP	47	96	3
TAP	47	144	1
TAP	47	192	4
TAP	47	192	5
TAP	47	240	6
TAP	47	288	2
TAP	47	288	3
TAP	47	336	1
STR	48	0	6
SI_	48	0	6	96	48	4
TAP	48	48	6
STR	48	96	0
SI_	48	96	0	96	48	2
TAP	48	144	0
TAP	48	192	7
TAP	48	240	7
TAP	48	256	6
TAP	48	272	5
TAP	48	288	0
TAP	48	288	4
TAP	49	0	0
TAP	49	0	7
TAP	49	48	1
TAP	49	64	2
TAP	49	80	3
TAP	49	96	4
TAP	49	144	7
TAP	49	192	0
TAP	49	192	7
TAP	49	240	6
TAP	49	256	5
TAP	49	272	4
TAP	49	288	3
TAP	49	336	0
TAP	50	48	2
TAP	50	48	3
TAP	50	144	4
TAP	50	144	5
TTP	50	240	7	E	0	M1
TTP	50	256	7	B	0	M1
TTP	50	272	0	B	0	M1
TTP	50	288	1	E	0	M1
TAP	51	0	5
TAP	51	12	4
HLD	51	24	3	300
TAP	51	336	2
TAP	51	348	3
HLD	51	360	4	108
TAP	52	96	6
TAP	52	108	5
HLD	52	120	4	60
TAP	52	192	5
TAP	52	204	4
HLD	52	216	3	60
TAP	52	288	4
TAP	52	300	3
HLD	52	312	2	60
TAP	53	0	0
TAP	53	12	1
HLD	53	24	2	156
TAP	53	192	5
TAP	53	204	4
HLD	53	216	3	108
TAP	53	336	2
TAP	53	348	3
TAP	53	360	4
TAP	54	42	0
TAP	54	48	1
TAP	54	96	3
TAP	54	144	4
TAP	54	192	5
TAP	54	240	4
TAP	54	288	3
TAP	55	0	1
TAP	55	0	3
TAP	55	96	3
TAP	55	96	6
TAP	55	192	2
TAP	55	192	4
TAP	55	288	4
TAP	55	288	6
TAP	56	0	1
TAP	56	0	4
TAP	56	96	3
TAP	56	96	6
TAP	56	192	0
TAP	56	192	4
TAP	56	288	2
TAP	56	288	7
TAP	57	0	1
TAP	57	0	5
TAP	57	48	3
TAP	57	96	2
TAP	57	96	6
TAP	57	144	4
TAP	57	192	1
TAP	57	192	5
TAP	57	240	3
TAP	57	288	2
TAP	57	288	6
TAP	57	336	4
TAP	58	0	1
TAP	58	0	5
TAP	58	48	0
TAP	58	48	7
TAP	58	96	0
TAP	58	96	7
TTP	58	192	0	B	0	M1
TTP	58	192	1	E	0	M1
TTP	58	192	7	B	0	M1
TTP	58	192	7	E	0	M1
TTP	58	204	1	B	0	M1
TTP	58	204	6	B	0	M1
TTP	58	216	2	B	0	M1
TTP	58	216	5	B	0	M1
TTP	58	228	3	E	0	M1
TTP	58	228	5	E	0	M1
BRK	59	0	3
BST	59	0	7
SI_	59	0	7	96	48	3
BRK	59	96	1
BRK	59	96	7
BST	59	192	1
SI_	59	192	1	96	48	5
BRK	59	192	4
BRK	59	288	1
BRK	59	288	7
BRK	60	0	3
BST	60	0	6
SI_	60	0	6	96	48	3
BRK	60	96	0
BRK	60	96	6
BRK	60	192	1
BRK	60	192	5
BRK	60	288	4
BRK	60	288	6
BRK	60	336	3
BRK	60	336	5
BST	61	0	2
SI_	61	0	2	96	48	7
BRK	61	0	4
BRK	61	96	0
BRK	61	96	2
BRK	61	192	3
BST	61	192	5
SI_	61	192	5	96	48	7
BRK	61	288	4
BRK	61	288	5
BRK	62	0	1
BRK	62	0	4
BRK	62	48	1
BRK	62	48	6
BRK	62	96	2
BRK	62	96	6
BRK	62	144	2
BRK	62	144	5
BRK	62	192	0
BRK	62	192	5
BRK	62	240	0
BRK	62	240	7
TTP	62	288	0	C	1	M1
BRK	62	288	7
BRK	63	0	1
BRK	63	0	6
BRK	63	96	1
BRK	63	96	7
BRK	63	144	0
BRK	63	144	6
BRK	63	192	6
BST	63	192	7
SI_	63	192	7	96	48	4
BRK	63	288	5
BRK	63	288	7
BRK	64	0	2
BST	64	0	3
SI_	64	0	3	96	48	0
BRK	64	96	1
BRK	64	96	3
BRK	64	192	3
BRK	64	192	5
BRK	64	288	4
BRK	64	288	6
BRK	64	336	1
BRK	64	336	4
BRK	65	0	1
BRK	65	0	7
BRK	65	96	3
BRK	65	120	4
BRK	65	144	2
BRK	65	192	3
BRK	65	192	5
BRK	65	288	0
BRK	65	312	5
BRK	65	336	3
BRK	65	360	7
THO	66	0	0	192	C	1	M1
BRK	66	288	1
BRK	66	288	6
TAP	67	0	0
STR	67	0	7
SCL	67	0	7	96	48	4
TAP	67	96	0
TAP	67	96	7
TAP	67	192	1
TAP	67	240	1
TAP	67	288	2
TAP	67	336	2
TAP	68	0	3
STR	68	0	4
SCR	68	0	4	96	48	7
TAP	68	96	0
TAP	68	96	4
TAP	68	192	0
TAP	68	192	2
TAP	68	288	5
TAP	68	288	7
STR	69	0	3
SCL	69	0	3	96	48	0
TAP	69	0	4
TAP	69	96	3
TAP	69	96	7
TAP	69	192	6
TAP	69	240	6
TAP	69	288	5
TAP	69	336	5
STR	70	0	3
SCL	70	0	3	96	48	0
TAP	70	0	4
TAP	70	96	3
TAP	70	96	7
TAP	70	192	6
TAP	70	240	2
TAP	70	288	0
TAP	70	288	4
TAP	71	0	0
STR	71	0	1
SCR	71	0	1	96	48	4
XTP	71	48	0
XTP	71	48	1
XTP	71	96	0
XTP	71	96	1
TAP	71	112	7
TAP	71	128	6
TAP	71	144	5
TAP	71	192	0
STR	71	192	1
SCR	71	192	1	96	48	4
XTP	71	240	0
XTP	71	240	1
XTP	71	288	0
XTP	71	288	1
TAP	71	304	7
TAP	71	320	6
TAP	71	336	5
TAP	72	0	1
TAP	72	48	5
TAP	72	72	5
TAP	72	96	3
TAP	72	144	4
TAP	72	168	4
TAP	72	192	1
TAP	72	216	3
TAP	72	240	2
TAP	72	264	4
TAP	72	288	3
BST	73	0	0
SI_	73	0	0	96	48	4
TAP	73	16	7
TAP	73	32	6
TAP	73	48	5
XTP	73	96	0
BST	73	144	7
SI_	73	144	7	96	48	3
TAP	73	160	0
TAP	73	176	1
TAP	73	192	2
XTP	73	240	7
TAP	73	288	1
TAP	73	336	0
TAP	73	336	7
TAP	74	0	3
TAP	74	24	4
TAP	74	48	2
TAP	74	72	5
TAP	74	96	1
TAP	74	120	6
TAP	74	144	0
TAP	74	168	7
STR	74	192	0
SF_	74	192	0	96	48	4
TAP	74	204	1
TAP	74	216	2
TAP	74	228	3
TAP	74	240	4
TAP	74	252	5
TAP	74	264	6
TAP	74	276	7
XTP	74	288	0
TAP	75	0	0
TAP	75	24	7
TAP	75	48	1
TAP	75	72	6
STR	75	96	2
SCL	75	96	2	96	48	7
TAP	75	144	2
STR	75	192	5
SCR	75	192	5	96	48	0
TAP	75	240	5
STR	75	288	3
SUL	75	288	3	96	48	6
TAP	75	336	3
STR	76	0	4
SUR	76	0	4	96	48	1
TAP	76	48	4
TAP	76	96	2
TAP	76	144	2
BRK	76	192	3
HLD	76	192	5	96
BRK	76	288	0
TAP	77	0	6
TTP	77	24	1	E	0	M1
TAP	77	48	6
TTP	77	72	2	E	0	M1
TAP	77	96	6
TTP	77	120	3	E	0	M1
TAP	77	144	6
TTP	77	168	0	E	0	M1
TAP	77	192	6
TTP	77	216	0	C	0	M1
TAP	77	240	6
TTP	77	264	4	E	0	M1
TAP	77	288	6
HLD	78	0	2	24
TAP	78	0	5
TAP	78	48	1
HLD	78	48	4	24
HLD	78	96	2	24
TAP	78	96	5
TAP	78	144	3
HLD	78	144	6	24
HLD	78	192	2	24
TAP	78	192	5
TAP	78	240	1
HLD	78	240	4	24
TAP	78	288	2
TAP	78	288	5
HLD	79	0	7	48
TTP	79	48	0	C	1	M1
HLD	79	96	6	48
TTP	79	144	0	C	1	M1
HLD	79	192	5	48
TTP	79	240	0	C	1	M1
HLD	79	288	4	48
TTP	79	336	0	C	1	M1
HLD	80	0	3	48
TTP	80	48	0	C	1	M1
HLD	80	96	2	48
TTP	80	144	0	C	1	M1
HLD	80	192	1	48
TTP	80	240	0	C	1	M1
XTP	80	288	0
XTP	81	0	0
TTP	81	0	0	E	0	M1
XTP	81	48	1
TTP	81	48	1	E	0	M1
XTP	81	96	2
TTP	81	96	2	E	0	M1
XTP	81	144	3
TTP	81	144	3	E	0	M1
XTP	81	192	4
TTP	81	192	4	E	0	M1
XTP	81	240	5
TTP	81	240	5	E	0	M1
BRK	81	288	6
TTP	81	288	6	E	0	M1
STR	82	0	7
SI_	82	0	7	96	48	1
STR	82	48	1
SV_	82	48	1	96	48	2
STR	82	96	2
SI_	82	96	2	96	48	4
BRK	82	288	7
XST	83	0	1
SI_	83	0	1	96	192	5
TAP	83	48	4
TAP	83	96	5
TAP	83	144	6
TAP	83	192	7
TAP	83	240	7
TAP	83	288	0
TAP	83	336	0
XST	84	0	1
SI_	84	0	1	96	48	5
XTP	84	96	1
XTP	84	96	5
STR	84	192	0
SI_	84	192	0	96	48	4
SI_	84	192	0	96	48	5
TTP	84	192	6	B	0	M1
TTP	84	216	0	C	0	M1
TTP	84	240	2	B	0	M1
XTP	84	288	0
STR	85	0	1
SI_	85	0	1	96	48	4
STR	85	48	4
SLL	85	48	4	96	96	7
TAP	85	96	1
STR	85	144	7
SI_	85	144	7	96	48	3
XTP	85	240	5
XTP	85	288	5
STR	86	0	6
SI_	86	0	6	96	48	3
STR	86	48	3
SLR	86	48	3	96	96	0
TAP	86	96	6
STR	86	144	0
SI_	86	144	0	96	48	4
TAP	86	240	2
BRK	86	288	2
STR	87	0	6
SI_	87	0	6	96	192	2
TAP	87	48	3
TAP	87	96	2
TAP	87	144	1
TAP	87	192	0
TAP	87	240	0
TAP	87	288	7
TAP	87	336	7
STR	88	0	6
SI_	88	0	6	96	48	2
TAP	88	96	2
TAP	88	96	6
TTP	88	192	1	B	0	M1
STR	88	192	7
SI_	88	192	7	96	48	2
SI_	88	192	7	96	48	4
TTP	88	216	0	C	0	M1
TTP	88	240	5	B	0	M1
XTP	88	288	7
STR	89	0	6
SI_	89	0	6	96	48	3
STR	89	48	3
SLR	89	48	3	96	96	0
TAP	89	96	6
STR	89	144	0
SI_	89	144	0	96	48	4
XTP	89	240	2
XHO	89	288	2	96
TAP	90	0	4
STR	90	48	0
SV_	90	48	0	96	48	3
STR	90	48	6
SV_	90	48	6	96	48	3
TAP	90	72	1
TAP	90	72	5
TAP	90	96	2
TAP	90	96	4
BRK	90	240	1
BRK	90	240	5
TTP	91	0	0	C	1	M1
TTP	91	0	2	B	0	M1
TTP	91	0	2	E	0	M1
TTP	91	0	3	B	0	M1
TTP	91	0	3	E	0	M1
TTP	91	0	4	B	0	M1
TTP	91	0	4	E	0	M1
TTP	91	0	5	B	0	M1
TTP	91	0	5	E	0	M1
TTP	91	0	6	E	0	M1
TAP	91	96	0
TAP	91	192	0
TAP	91	192	7
XTP	91	288	0
XTP	91	288	7
TTP	92	0	0	C	1	M1
TTP	92	0	2	B	0	M1
TTP	92	0	2	E	0	M1
TTP	92	0	3	B	0	M1
TTP	92	0	3	E	0	M1
TTP	92	0	4	B	0	M1
TTP	92	0	5	B	0	M1
TTP	92	0	5	E	0	M1
TTP	92	0	6	E	0	M1
TAP	92	96	7
TAP	92	192	0
XTP	92	288	1
XTP	92	288	2
TTP	93	0	0	C	1	M1
TTP	93	0	4	B	0	M1
TTP	93	0	5	B	0	M1
TTP	93	0	5	E	0	M1
TTP	93	0	6	B	0	M1
TTP	93	0	6	E	0	M1
TTP	93	0	7	B	0	M1
TTP	93	0	7	E	0	M1
TAP	93	96	0
TAP	93	192	1
TAP	93	192	7
TAP	93	288	5
TAP	93	288	6
TTP	94	0	0	B	0	M1
TTP	94	0	0	C	1	M1
TTP	94	0	1	B	0	M1
TTP	94	0	1	E	0	M1
TTP	94	0	2	B	0	M1
TTP	94	0	3	B	0	M1
TTP	94	0	3	E	0	M1
TAP	94	96	7
TAP	94	120	6
TAP	94	144	5
TAP	94	168	4
XTP	94	192	7
BRK	94	288	0
BRK	94	288	7
TTP	95	0	0	C	1	M1
TTP	95	0	1	B	0	M1
TTP	95	0	2	B	0	M1
TTP	95	0	3	B	0	M1
TTP	95	0	3	E	0	M1
TTP	95	0	4	B	0	M1
TAP	95	96	7
TTP	95	192	0	C	1	M1
TTP	95	192	3	B	0	M1
TTP	95	192	4	B	0	M1
TTP	95	192	5	B	0	M1
TTP	95	192	6	B	0	M1
TAP	95	288	0
TTP	96	0	0	C	1	M1
TTP	96	0	6	B	0	M1
TTP	96	0	7	B	0	M1
TTP	96	0	7	E	0	M1
TTP	96	96	0	C	1	M1
TTP	96	96	1	B	0	M1
TTP	96	96	2	B	0	M1
TTP	96	192	0	C	1	M1
TTP	96	192	3	E	0	M1
TTP	96	288	0	C	1	M1
TAP	97	0	0
TAP	97	24	7
TAP	97	48	0
TAP	97	72	7
TAP	97	96	1
TAP	97	120	6
TAP	97	144	2
TAP	97	168	5
TAP	97	192	1
TAP	97	216	6
TAP	97	240	3
TAP	97	264	4
TAP	97	288	2
TAP	97	312	5
TAP	97	336	3
TAP	97	360	4
BST	98	0	0
SI_	98	0	0	96	48	3
BST	98	96	0
SCL	98	96	0	96	48	5
BRK	98	192	0
BST	98	192	4
SF_	98	192	4	96	48	0
XST	99	0	0
SI_	99	0	0	96	48	4
XTP	99	0	7
TAP	99	48	1
TAP	99	96	0
STR	99	96	7
SI_	99	96	7	96	48	3
TAP	99	144	6
TAP	99	192	3
TAP	99	192	7
TAP	99	240	2
TAP	99	288	1
TAP	99	288	5
TAP	99	336	0
TAP	100	0	6
TAP	100	0	7
TAP	100	48	6
TAP	100	48	7
TAP	100	72	0
TAP	100	72	5
TAP	100	96	1
TAP	100	96	4
TAP	100	144	1
TAP	100	144	4
STR	100	192	0
SI_	100	192	0	96	48	4
STR	100	192	5
SI_	100	192	5	96	48	7
BRK	100	288	0
BRK	100	288	5
XTP	101	0	2
XTP	101	0	6
TAP	101	48	4
TAP	101	72	3
TAP	101	96	4
TAP	101	144	2
TAP	101	144	5
XTP	101	192	0
XTP	101	192	6
TAP	101	240	3
TAP	101	264	4
TAP	101	288	3
BRK	102	0	7
XTP	102	12	6
XTP	102	24	5
XTP	102	36	4
XTP	102	48	3
XTP	102	60	2
XTP	102	72	1
XTP	102	84	0
BRK	102	96	7
XTP	102	108	6
XTP	102	120	5
XTP	102	132	4
XTP	102	144	3
XTP	102	156	2
XTP	102	168	1
XTP	102	180	0
BST	102	192	7
SI_	102	192	7	96	24	3
BRK	102	288	7
TTP	102	300	0	C	1	M1
XTP	103	0	0
XTP	103	0	5
TAP	103	48	6
TAP	103	48	7
TAP	103	96	0
TAP	103	96	5
BRK	103	144	1
BRK	103	144	4
XTP	103	192	2
XTP	103	192	7
TAP	103	240	0
TAP	103	240	1
TAP	103	288	2
TAP	103	288	7
BRK	103	336	3
BRK	103	336	6
XTP	104	0	1
XTP	104	0	4
TAP	104	48	2
TAP	104	48	3
TAP	104	96	1
TAP	104	96	4
BRK	104	144	0
BRK	104	144	5
XTP	104	192	3
XTP	104	192	6
TAP	104	240	4
TAP	104	240	5
TAP	104	288	3
TAP	104	288	6
BRK	104	336	2
BRK	104	336	7
XTP	105	0	0
TAP	105	24	4
TAP	105	48	0
TAP	105	72	4
TAP	105	96	1
TAP	105	120	5
TAP	105	144	1
TAP	105	168	5
TAP	105	192	2
TAP	105	216	6
TAP	105	240	2
TAP	105	264	6
XTP	105	288	3
TAP	105	300	4
TAP	105	312	5
TAP	105	324	6
TAP	105	336	7
TAP	105	348	0
TAP	105	360	1
TAP	105	372	2
BST	106	0	3
SI_	106	0	3	96	48	7
BST	106	96	3
SCL	106	96	3	96	48	0
SCR	106	96	3	96	48	6
TTP	106	108	3	B	0	M1
TTP	106	120	0	C	1	M1
TTP	106	132	7	B	0	M1
BST	106	192	3
SF_	106	192	3	96	48	7
BRK	106	288	3
TTP	106	300	3	B	0	M1
TTP	106	312	0	C	1	M1
TTP	106	324	0	B	0	M1
TTP	106	324	6	B	0	M1
TTP	106	324	7	B	0	M1

T_REC_TAP	548
T_REC_BRK	115
T_REC_XTP	137
T_REC_HLD	60
T_REC_XHO	4
T_REC_STR	69
T_REC_BST	21
T_REC_XST	8
T_REC_TTP	134
T_REC_THO	1
T_REC_SLD	103
T_REC_ALL	1200
T_NUM_TAP	896
T_NUM_BRK	136
T_NUM_HLD	65
T_NUM_SLD	103
T_NUM_ALL	1200
T_JUDGE_TAP	1032
T_JUDGE_HLD	107
T_JUDGE_SLD	103
T_JUDGE_ALL	1242
TTM_EACHPAIRS	253
TTM_SCR_TAP	448000
TTM_SCR_BRK	353600
TTM_SCR_HLD	65000
TTM_SCR_SLD	154500
TTM_SCR_ALL	1021100
TTM_SCR_S	977300
TTM_SCR_SS	1007500
TTM_RAT_ACV	10134

