VERSION	0.00.00	1.03.00
FES_MODE	0
BPM_DEF	200.000	200.000	200.000	200.000
MET_DEF	4	4
RESOLUTION	384
CLK_DEF	384
COMPATIBLE_CODE	MA2

BPM	0	0	200.000
MET	0	0	4	4

HLD	1	0	2	48
HLD	1	96	3	48
HLD	1	192	4	48
HLD	1	288	5	48
TAP	2	0	4
TAP	2	48	4
TAP	2	96	3
TAP	2	144	3
STR	2	192	5
SI_	2	192	5	96	48	2
XTP	2	288	0
BRK	3	0	3
BRK	3	0	4
TAP	3	96	3
TAP	3	96	4
TAP	3	192	3
TAP	3	192	4
TAP	3	288	3
TAP	3	288	4
TAP	3	336	3
TAP	3	336	4
STR	4	0	3
SI_	4	0	3	96	48	1
TAP	4	0	4
TAP	4	96	4
TAP	4	192	4
TAP	4	240	1
TAP	4	288	4
TAP	4	336	2
TAP	5	0	3
TAP	5	0	4
TAP	5	96	4
TAP	5	96	5
TAP	5	192	3
TAP	5	240	3
TAP	5	288	4
TAP	5	336	4
HLD	6	0	2	96
HLD	6	144	1	96
HLD	6	144	3	96
BRK	6	288	0
BRK	6	288	4
TAP	7	0	3
TAP	7	0	7
TAP	7	96	3
TAP	7	96	6
TAP	7	192	3
TAP	7	192	5
TAP	7	288	3
TAP	7	288	4
TAP	7	336	3
TAP	7	336	4
TAP	8	0	3
TAP	8	0	4
TAP	8	96	0
TAP	8	96	1
TAP	8	144	2
TAP	8	144	7
TAP	8	240	6
TAP	8	240	7
TAP	8	288	0
TAP	8	288	5
XTP	9	0	2
XTP	9	0	3
XTP	9	48	3
XTP	9	48	4
XTP	9	96	4
XST	9	96	5
SCR	9	96	5	96	192	2
XTP	9	144	3
XTP	9	144	4
TTP	10	0	4	E	0	M1
TTP	10	96	0	C	0	M1
TTP	10	192	0	E	0	M1
THO	10	288	0	96	C	1	M1
XHO	13	0	3	96
XHO	13	0	4	288
HLD	13	192	5	288
XHO	14	0	6	288
XHO	14	192	7	288
XHO	15	0	0	288
HLD	15	192	1	288
XHO	16	0	2	288
HLD	16	192	3	192
TAP	17	0	4
TAP	17	96	0
TAP	17	96	7
TAP	17	192	3
TAP	17	192	4
TAP	17	240	3
TAP	17	240	4
STR	17	288	2
SCL	17	288	2	96	144	5
TAP	17	288	5
BST	18	192	4
SI_	18	192	4	96	48	0
XTP	19	0	2
XTP	19	0	6
XTP	19	48	2
XTP	19	48	6
TAP	19	144	2
TAP	19	144	3
TAP	19	240	0
TAP	19	240	5
TAP	19	336	4
TAP	19	336	5
TAP	20	48	2
TAP	20	48	7
TAP	20	144	2
TAP	20	144	3
TAP	20	240	0
TAP	20	240	6
TAP	20	288	0
TAP	20	288	6
TAP	20	336	0
STR	20	336	6
SI_	20	336	6	96	48	4
STR	21	48	2
SI_	21	48	2	96	48	4
STR	21	144	0
SI_	21	144	0	96	48	4
TAP	21	240	2
TAP	21	336	2
TAP	22	0	1
TAP	22	0	3
TAP	22	96	5
TAP	22	144	4
TAP	22	144	6
TAP	22	240	0
TAP	22	240	1
BRK	22	288	2
BRK	22	288	7
XTP	23	0	1
XTP	23	0	5
XTP	23	48	1
XTP	23	48	5
TAP	23	144	4
TAP	23	144	5
TAP	23	240	2
TAP	23	240	7
TAP	23	336	2
TAP	23	336	3
TAP	24	48	0
TAP	24	48	5
TAP	24	144	4
TAP	24	144	5
TAP	24	240	1
TAP	24	240	7
TAP	24	288	1
TAP	24	288	7
TAP	24	336	1
TAP	24	336	7
HLD	25	0	2	96
TAP	25	0	6
HLD	25	96	3	96
HLD	25	192	4	96
HLD	25	288	5	96
THO	26	0	0	192	C	0	M1
BRK	26	288	7
HLD	27	0	1	96
TAP	27	96	3
TAP	27	168	2
TAP	27	168	5
TAP	27	240	1
TAP	27	240	3
XTP	27	288	1
XTP	27	288	3
HLD	28	0	6	96
TAP	28	96	4
TAP	28	168	2
TAP	28	168	5
TAP	28	240	4
TAP	28	240	6
XTP	28	288	4
XTP	28	288	6
HLD	29	0	3	96
TAP	29	96	4
TAP	29	168	1
TAP	29	168	6
TAP	29	240	3
TAP	29	240	4
XTP	29	288	3
XST	29	288	4
SI_	29	288	4	96	48	7
TAP	30	96	0
TAP	30	144	0
XST	30	192	0
SI_	30	192	0	96	48	3
XTP	30	192	7
HLD	31	0	4	96
TAP	31	96	3
TAP	31	168	2
TAP	31	168	3
TAP	31	240	4
TAP	31	240	5
TAP	31	312	1
TAP	31	312	3
TAP	32	0	4
TAP	32	0	6
TAP	32	72	0
TAP	32	72	2
TAP	32	144	5
TAP	32	144	7
TAP	32	216	1
TAP	32	216	6
TAP	32	288	2
TAP	32	336	2
TAP	33	0	3
TAP	33	48	3
TAP	33	96	4
TAP	33	144	4
STR	33	192	5
SI_	33	192	5	96	48	2
TAP	33	240	5
XTP	34	0	0
XTP	34	0	1
XTP	34	72	6
XTP	34	72	7
XTP	34	144	2
XTP	34	144	3
XTP	34	216	4
XTP	34	216	5
BRK	34	288	0
STR	35	0	1
SCR	35	0	1	96	48	4
STR	35	0	7
SCL	35	0	7	96	48	4
TAP	35	192	0
TAP	35	240	0
TAP	35	288	7
TAP	35	336	7
STR	36	0	0
SCR	36	0	0	96	48	3
STR	36	0	6
SCL	36	0	6	96	48	3
TAP	36	192	7
TAP	36	240	7
TAP	36	288	0
TAP	36	336	0
HLD	37	0	1	48
HLD	37	0	7	48
HLD	37	96	1	48
HLD	37	96	3	48
HLD	37	192	4	48
HLD	37	192	6	48
HLD	37	288	0	48
HLD	37	288	6	48
TAP	38	0	7
TAP	38	48	7
TAP	38	96	0
TAP	38	144	0
STR	38	192	1
SI_	38	192	1	96	48	5
STR	38	192	7
SI_	38	192	7	96	48	3
TAP	39	0	4
TAP	39	48	4
STR	39	96	3
SUR	39	96	3	96	192	4
TAP	39	144	3
TAP	40	0	7
TAP	40	48	6
TAP	40	96	4
TAP	40	96	5
TAP	40	192	2
TAP	40	192	3
HLD	40	240	2	72
TAP	40	240	3
HLD	40	312	1	72
BRK	41	0	0
TAP	41	96	4
TAP	41	96	6
TAP	41	192	1
TAP	41	192	3
TAP	41	288	7
TAP	41	336	7
STR	42	0	0
SI_	42	0	0	96	48	4
STR	42	96	6
SI_	42	96	6	96	48	2
STR	42	192	1
SI_	42	192	1	96	48	4
BRK	42	288	7
TAP	43	0	5
TAP	43	0	6
TAP	43	96	3
TAP	43	96	4
TAP	43	192	1
TAP	43	192	2
TAP	43	288	0
TAP	43	288	7
TAP	43	336	0
TAP	43	336	7
TAP	44	48	3
TAP	44	48	4
TAP	44	96	3
TAP	44	96	4
TAP	44	192	5
TAP	44	240	5
STR	44	288	2
SCL	44	288	2	96	576	5
TAP	44	336	2
TAP	45	0	4
TAP	45	96	4
TAP	45	192	3
TAP	45	288	3
TAP	46	0	4
TAP	46	96	4
TAP	46	192	3
TAP	46	288	3
TAP	46	288	4
TAP	47	0	1
TAP	47	0	2
TAP	47	96	0
TAP	47	96	7
TAP	47	192	5
TAP	47	192	6
TAP	47	288	3
TAP	47	288	4
TAP	47	336	3
TAP	47	336	4
TAP	48	48	0
TAP	48	48	7
TAP	48	96	0
TAP	48	96	7
TAP	48	192	2
TAP	48	240	2
STR	48	288	5
SCR	48	288	5	96	576	2
TAP	48	336	5
TAP	49	0	3
TAP	49	96	3
TAP	49	192	4
TAP	49	288	4
TAP	50	0	3
TAP	50	96	3
TTP	50	192	4	E	0	M1
TTP	50	288	0	E	0	M1
TTP	51	0	0	C	1	M1
TTP	51	0	2	E	0	M1
TTP	51	0	6	E	0	M1
HLD	55	0	2	768
TAP	55	0	3
TAP	55	96	3
TAP	55	192	4
TAP	55	288	4
TAP	56	0	3
TAP	56	96	3
TAP	56	192	4
TAP	56	288	4
HLD	57	0	5	96
HLD	57	96	4	96
HLD	57	192	3	96
HLD	57	288	2	96
TAP	58	0	4
TAP	58	48	4
TAP	58	96	3
TAP	58	144	3
STR	58	192	4
SI_	58	192	4	96	48	7
BRK	58	288	0
XTP	59	0	1
XTP	59	0	6
TTP	59	96	3	B	0	M1
TTP	59	96	3	E	0	M1
TTP	59	96	4	B	0	M1
TTP	59	96	5	E	0	M1
TTP	59	192	0	C	0	M1
TTP	59	192	2	E	0	M1
TTP	59	192	6	E	0	M1
TTP	59	288	0	B	0	M1
TTP	59	288	1	E	0	M1
TTP	59	288	7	B	0	M1
TTP	59	288	7	E	0	M1
TTP	60	0	0	C	0	M1
TTP	60	0	2	E	0	M1
TTP	60	0	6	E	0	M1
TTP	60	96	3	B	0	M1
TTP	60	96	3	E	0	M1
TTP	60	96	4	B	0	M1
TTP	60	96	5	E	0	M1
TTP	60	192	0	C	0	M1
TTP	60	192	2	E	0	M1
TTP	60	192	6	E	0	M1
XTP	60	288	0
XTP	60	288	7
XTP	60	336	0
XTP	60	336	7
XTP	61	0	1
XTP	61	0	6
TTP	61	96	0	E	0	M1
TTP	61	96	6	B	0	M1
TTP	61	96	6	E	0	M1
TTP	61	96	7	B	0	M1
TTP	61	192	0	C	0	M1
TTP	61	192	1	E	0	M1
TTP	61	192	5	E	0	M1
TTP	61	288	2	B	0	M1
TTP	61	288	2	E	0	M1
TTP	61	288	3	B	0	M1
TTP	61	288	4	E	0	M1
XTP	62	0	6
XTP	62	0	7
XTP	62	48	6
XTP	62	48	7
XTP	62	96	0
XTP	62	96	5
XTP	62	192	0
XTP	62	192	1
XTP	62	240	0
XTP	62	240	1
XTP	62	288	2
XTP	62	288	7
TTP	63	0	3	B	0	M1
TTP	63	0	4	B	0	M1
TTP	63	0	4	E	0	M1
XTP	63	96	0
XTP	63	96	7
XTP	63	144	0
XTP	63	144	7
XTP	63	192	1
XTP	63	192	6
TTP	63	288	0	C	0	M1
TTP	63	288	3	E	0	M1
TTP	63	288	7	E	0	M1
TTP	64	0	4	B	0	M1
TTP	64	0	4	E	0	M1
TTP	64	0	5	B	0	M1
TTP	64	0	6	E	0	M1
TTP	64	96	0	C	0	M1
TTP	64	96	3	E	0	M1
TTP	64	96	7	E	0	M1
TTP	64	192	0	B	0	M1
TTP	64	192	0	E	0	M1
TTP	64	192	1	B	0	M1
TTP	64	192	2	E	0	M1
XTP	64	288	4
XTP	64	288	5
XTP	64	336	4
XTP	64	336	5
XTP	65	0	3
XTP	65	0	6
XTP	65	96	2
XTP	65	96	3
XTP	65	144	2
XTP	65	144	3
XTP	65	192	1
XTP	65	192	4
TTP	65	288	0	C	0	M1
TTP	65	288	0	E	0	M1
TTP	65	288	4	E	0	M1
HLD	66	0	1	48
HLD	66	0	6	48
HLD	66	96	2	48
HLD	66	96	5	48
STR	66	192	3
SI_	66	192	3	96	48	7
STR	66	192	4
SI_	66	192	4	96	48	0
XTP	67	0	1
XHO	67	0	6	192
TAP	67	192	5
XHO	67	288	4	192
XTP	67	288	7
TAP	68	96	5
TAP	68	192	2
TAP	68	192	3
TAP	68	288	4
TAP	68	288	5
XHO	69	0	2	192
XTP	69	0	6
TAP	69	192	1
XHO	69	288	0	192
XTP	69	288	3
TAP	70	96	1
TAP	70	192	3
TAP	70	192	4
TAP	70	288	6
TAP	70	288	7
STR	71	0	5
SI_	71	0	5	96	48	0
TAP	71	48	5
STR	71	192	1
SI_	71	192	1	96	48	4
TAP	71	240	1
STR	72	0	6
SI_	72	0	6	96	48	4
TAP	72	48	6
STR	72	96	0
SI_	72	96	0	96	48	2
TAP	72	144	0
STR	72	192	7
SI_	72	192	7	96	48	3
TAP	72	240	7
XHO	73	0	1	72
XHO	73	72	3	72
XHO	73	144	4	72
XHO	73	216	6	72
XST	73	288	1
SCR	73	288	1	96	192	6
THO	74	0	0	192	C	1	M1
BRK	75	0	0
BRK	75	24	7
BRK	75	48	0
BRK	75	72	7
BRK	75	96	0
TAP	75	192	1
TAP	75	240	1
TAP	75	288	3
TAP	75	336	3
TAP	76	0	4
TAP	76	48	4
TAP	76	96	6
TAP	76	144	6
STR	76	192	5
SI_	76	192	5	96	48	0
XTP	76	192	7
XTP	76	288	1
XTP	77	0	2
XTP	77	0	3
XTP	77	48	3
XTP	77	48	4
XTP	77	96	4
XTP	77	96	5
TAP	77	192	6
TAP	77	240	6
TAP	77	288	4
TAP	77	336	4
TAP	78	0	3
TAP	78	48	3
TAP	78	96	1
TAP	78	144	1
XTP	78	192	0
STR	78	192	2
SI_	78	192	2	96	48	7
XTP	78	288	6
TAP	79	0	4
TAP	79	0	5
HLD	79	48	4	48
HLD	79	48	5	48
HLD	79	144	0	48
HLD	79	144	7	48
HLD	79	240	2	48
HLD	79	240	3	48
HLD	79	336	0	48
HLD	79	336	7	48
HLD	80	48	3	48
HLD	80	48	4	48
HLD	80	144	1	48
HLD	80	144	6	48
XTP	80	240	2
XTP	80	240	5
BRK	80	288	0
BRK	80	288	7
XTP	81	0	0
XTP	81	48	1
XTP	81	96	2
XTP	81	144	3
XTP	81	192	4
XTP	81	240	5
BST	81	288	1
SXR	81	288	1	96	288	4
BST	81	288	6
SXL	81	288	6	96	288	3
THO	83	0	0	384	C	0	M1
TTP	83	0	1	B	0	M1
TTP	83	0	2	B	0	M1
TTP	83	0	5	B	0	M1
TTP	83	0	6	B	0	M1
BST	84	192	7
SI_	84	192	7	96	48	3
BRK	84	288	7
HLD	85	0	2	72
TAP	85	72	3
TAP	85	96	2
TAP	85	144	2
TAP	85	192	1
TAP	85	240	0
TAP	85	288	2
TAP	85	288	7
HLD	86	0	5	72
TAP	86	72	4
TAP	86	96	5
TAP	86	144	5
TAP	86	192	6
TAP	86	240	7
TAP	86	288	0
TAP	86	288	5
TAP	87	0	1
TAP	87	48	3
TAP	87	96	2
TAP	87	144	4
TAP	87	192	3
TAP	87	240	5
TAP	87	288	4
TAP	87	336	6
XTP	88	0	0
XTP	88	48	1
XTP	88	48	7
XTP	88	96	2
XTP	88	96	6
STR	88	192	4
SI_	88	192	4	96	48	0
BRK	88	288	3
HLD	89	0	1	72
TAP	89	72	0
TAP	89	96	1
TAP	89	144	1
TAP	89	192	2
TAP	89	240	3
TAP	89	288	1
TAP	89	288	4
HLD	90	0	6	72
TAP	90	72	7
TAP	90	96	6
TAP	90	144	6
TAP	90	192	5
TAP	90	240	4
TAP	90	288	3
TAP	90	288	6
TTP	91	0	0	C	1	M1
TTP	91	0	1	B	0	M1
TTP	91	0	1	E	0	M1
TTP	91	0	5	B	0	M1
TTP	91	0	5	E	0	M1
BRK	92	0	3
BRK	92	0	4
TTP	92	288	3	B	0	M1
TTP	92	288	3	E	0	M1
TTP	92	288	4	B	0	M1
TTP	92	288	5	E	0	M1
BRK	93	0	7
TAP	93	96	0
TAP	93	240	1
TAP	93	336	1
BRK	94	0	6
TAP	94	96	1
XST	94	192	2
SI_	94	192	2	96	48	4
XTP	95	0	3
BRK	95	0	5
XTP	95	96	3
XTP	95	192	2
BRK	95	192	4
XTP	95	288	4
XTP	95	336	4
BRK	96	0	3
XTP	96	48	5
BRK	96	96	2
XTP	96	144	6
BRK	96	192	1
BRK	96	288	0
XTP	97	0	0
XTP	97	24	7
XTP	97	48	0
XTP	97	72	7
XTP	97	96	0
XTP	97	120	7
XTP	97	144	0
XTP	97	168	7
XTP	97	192	0
XTP	97	216	7
XTP	97	240	0
XTP	97	264	7
XTP	97	288	0
XTP	97	312	7
XTP	97	336	0
XTP	97	360	7
BRK	98	0	0
BST	98	96	4
SF_	98	96	4	96	48	0
BRK	98	288	2
BRK	98	288	6
TAP	99	0	1
TAP	99	0	5
TAP	99	96	0
TAP	99	96	2
TAP	99	144	0
TAP	99	144	2
TAP	99	240	5
TAP	99	240	7
TAP	99	288	5
TAP	99	288	7
XTP	100	0	0
XTP	100	24	7
XTP	100	48	0
XTP	100	72	7
XTP	100	96	0
TAP	100	192	3
TAP	100	192	4
TAP	100	288	1
TAP	100	288	6
BST	101	0	3
SI_	101	0	3	96	48	1
BRK	101	0	4
BST	101	96	4
SI_	101	96	4	96	48	6
BST	101	192	3
SI_	101	192	3	96	48	7
BST	101	288	4
SI_	101	288	4	96	48	0
BST	102	0	3
SCL	102	0	3	96	48	0
BST	102	96	4
SCR	102	96	4	96	48	7
BST	102	192	3
SF_	102	192	3	96	48	7
XTP	103	0	1
XTP	103	0	5
TAP	103	48	1
TAP	103	48	5
TAP	103	96	4
TAP	103	144	3
XTP	103	192	2
XTP	103	192	6
TAP	103	240	2
TAP	103	240	6
TAP	103	288	1
TAP	103	336	0
XTP	104	0	3
XTP	104	0	7
TAP	104	48	3
TAP	104	48	7
TAP	104	96	6
TAP	104	144	5
XTP	104	192	0
XTP	104	192	4
TAP	104	240	0
TAP	104	240	4
TAP	104	288	3
TAP	104	336	2
STR	105	0	1
SI_	105	0	1	96	48	3
STR	105	96	7
SI_	105	96	7	96	48	5
STR	105	192	0
SI_	105	192	0	96	48	4
BRK	105	288	7
BRK	106	0	5
BRK	106	0	6
BRK	106	96	3
BRK	106	96	4
BST	106	192	1
SCL	106	192	1	96	288	2
BRK	106	192	2
TTP	106	288	0	C	1	M1

T_REC_TAP	328
T_REC_BRK	40
T_REC_XTP	131
T_REC_HLD	53
T_REC_XHO	14
T_REC_STR	33
T_REC_BST	13
T_REC_XST	5
T_REC_TTP	74
T_REC_THO	4
T_REC_SLD	51
T_REC_ALL	746
T_NUM_TAP	571
T_NUM_BRK	53
T_NUM_HLD	71
T_NUM_SLD	51
T_NUM_ALL	746
T_JUDGE_TAP	624
T_JUDGE_HLD	176
T_JUDGE_SLD	51
T_JUDGE_ALL	851
TTM_EACHPAIRS	177
TTM_SCR_TAP	285500
TTM_SCR_BRK	137800
TTM_SCR_HLD	71000
TTM_SCR_SLD	76500
TTM_SCR_ALL	570800
TTM_SCR_S	548550
TTM_SCR_SS	565500
TTM_RAT_ACV	10093

