VERSION	0.00.00	1.03.00
FES_MODE	0
BPM_DEF	200.000	200.000	200.000	200.000
MET_DEF	4	4
RESOLUTION	384
CLK_DEF	384
COMPATIBLE_CODE	MA2

BPM	0	0	200.000
MET	0	0	4	4

TAP	1	0	3
TAP	1	96	3
TAP	1	192	4
TAP	1	288	4
TAP	2	0	3
TAP	2	0	4
XTP	2	192	2
XTP	2	192	5
TAP	3	0	1
TAP	3	96	1
TAP	3	192	1
TAP	3	192	3
TAP	4	0	2
TAP	4	96	2
TAP	4	192	2
TAP	4	192	3
TAP	5	0	6
TAP	5	96	6
TAP	5	192	4
TAP	5	192	6
TAP	6	0	5
TAP	6	96	5
TAP	6	192	4
TAP	6	192	5
TAP	7	0	2
TAP	7	96	2
TAP	7	192	1
TAP	7	192	3
TAP	8	0	5
TAP	8	96	5
TAP	8	192	4
TAP	8	192	6
TAP	9	0	3
TAP	9	96	3
TAP	9	192	4
TAP	9	288	4
TAP	10	0	3
TAP	10	0	4
XTP	10	192	2
XTP	10	192	5
STR	11	0	3
SI_	11	0	3	96	288	0
TAP	12	192	7
STR	13	0	6
SI_	13	0	6	96	288	3
TAP	14	192	2
STR	15	0	1
SI_	15	0	1	96	288	6
TAP	16	192	5
STR	17	0	3
SI_	17	0	3	96	288	0
STR	17	0	4
SI_	17	0	4	96	288	7
XTP	18	192	1
XTP	18	192	6
XHO	19	0	2	192
TAP	19	192	3
TAP	19	288	3
TAP	20	0	4
TAP	20	96	5
TAP	20	192	4
TAP	20	192	6
HLD	21	0	5	192
TAP	21	192	4
TAP	21	288	4
TAP	22	0	3
TAP	22	96	2
TAP	22	192	0
TAP	22	192	1
HLD	23	0	6	192
TAP	23	192	7
TAP	23	288	7
TAP	24	0	0
TAP	24	96	1
TAP	24	192	2
TAP	24	192	7
TAP	25	0	0
TAP	25	96	0
TAP	25	192	7
TAP	25	288	7
XTP	26	0	1
XTP	26	0	6
XTP	26	192	3
XTP	26	192	4
STR	27	0	5
SI_	27	0	5	96	192	0
STR	28	0	1
SI_	28	0	1	96	192	4
STR	29	0	5
SI_	29	0	5	96	192	1
TAP	30	0	0
TAP	30	96	0
TAP	30	192	1
TAP	30	288	1
BST	31	0	2
SCL	31	0	2	96	480	5
HLD	33	0	3	192
HLD	33	0	4	192
TAP	34	0	3
TAP	34	0	4
XTP	34	192	2
XTP	34	192	5
BRK	35	0	1
BRK	35	0	6
TAP	35	96	1
TAP	35	96	6
TAP	35	192	2
TAP	35	288	3
TAP	36	0	4
TAP	36	96	5
TAP	36	192	3
TAP	36	192	6
TAP	37	0	1
TAP	37	0	6
TAP	37	96	1
TAP	37	96	6
TAP	37	192	5
TAP	37	288	4
TAP	38	0	3
TAP	38	96	2
TAP	38	192	1
TAP	38	192	4
TAP	39	0	1
TAP	39	96	0
TAP	39	192	2
TAP	39	192	7
TAP	39	288	2
TAP	39	288	7
TAP	40	0	6
TAP	40	96	7
XTP	40	192	0
XTP	40	192	5
TAP	41	0	6
TAP	41	96	5
TAP	41	192	4
TAP	41	288	3
HLD	42	0	3	96
HLD	42	0	4	96
XTP	42	192	2
XTP	42	192	5
HLD	43	0	2	96
TAP	43	96	3
HLD	43	192	5	96
TAP	43	288	4
HLD	44	0	1	96
TAP	44	96	0
HLD	44	192	6	96
STR	44	288	7
SCR	44	288	7	96	288	3
TAP	46	0	4
TAP	46	96	4
TAP	46	192	3
TAP	46	192	4
HLD	47	0	5	96
TAP	47	96	4
HLD	47	192	2	96
TAP	47	288	3
HLD	48	0	6	96
TAP	48	96	7
HLD	48	192	1	96
STR	48	288	0
SCL	48	288	0	96	288	4
TAP	50	0	3
TAP	50	96	3
XTP	50	192	2
XTP	50	192	4
TTP	51	0	3	E	0	L1
TTP	51	192	2	E	0	L1
TTP	52	0	1	E	0	L1
TTP	53	0	5	E	0	L1
TTP	53	192	6	E	0	L1
TTP	54	0	7	E	0	L1
TTP	55	0	2	E	0	L1
TTP	55	96	2	B	0	L1
TTP	55	192	3	B	0	L1
TTP	56	0	6	E	0	L1
TTP	56	96	5	B	0	L1
TTP	56	192	4	B	0	L1
THO	57	0	0	384	C	1	L1
TAP	59	0	0
TAP	59	0	1
TAP	59	96	0
TAP	59	96	1
TAP	59	192	2
TAP	59	192	3
TAP	59	288	2
TAP	59	288	3
TAP	60	0	4
TAP	60	0	5
TAP	60	96	4
TAP	60	96	5
TAP	60	192	3
TAP	60	192	6
TAP	60	288	3
TAP	60	288	6
TAP	61	0	2
TAP	61	0	5
TAP	61	96	2
TAP	61	96	5
TAP	61	192	1
TAP	61	192	4
TAP	61	288	1
TAP	61	288	4
TAP	62	0	2
TAP	62	0	3
TAP	62	96	1
TAP	62	96	4
XTP	62	192	0
XTP	62	192	5
TAP	63	0	0
TAP	63	0	1
TAP	63	96	2
TAP	63	96	7
TAP	63	192	3
TAP	63	192	6
TAP	64	0	6
TAP	64	0	7
TAP	64	96	0
TAP	64	96	5
TAP	64	192	1
TAP	64	192	4
TAP	65	0	3
TAP	65	0	5
TAP	65	96	3
TAP	65	96	5
TAP	65	192	2
TAP	65	192	4
TAP	65	288	2
TAP	65	288	4
TAP	66	0	3
TAP	66	0	4
TAP	66	96	2
TAP	66	96	5
BRK	66	192	1
BRK	66	192	6
HLD	67	0	0	192
TAP	67	0	7
HLD	67	192	1	192
TAP	68	0	2
TAP	68	96	2
TAP	68	192	2
TAP	68	192	3
TAP	69	0	3
HLD	69	0	4	192
HLD	69	192	5	192
TAP	70	0	6
TAP	70	96	6
XTP	70	192	0
XTP	70	192	7
HLD	71	0	1	96
HLD	71	0	3	96
HLD	71	192	4	96
HLD	71	192	6	96
HLD	72	0	3	96
HLD	72	0	4	96
HLD	72	192	2	96
HLD	72	192	5	96
THO	73	0	0	384	C	1	L1
XTP	74	192	0
XTP	74	192	7
TAP	75	0	2
TAP	75	96	1
TAP	75	96	3
TAP	75	192	5
TAP	75	288	4
TAP	75	288	6
TAP	76	0	2
TAP	76	96	1
TAP	76	96	3
XTP	76	192	3
XTP	76	192	4
XTP	76	288	2
XTP	76	288	5
TAP	77	0	6
TAP	77	96	5
TAP	77	96	7
TAP	77	192	1
TAP	77	288	0
TAP	77	288	2
TAP	78	0	6
TAP	78	96	5
TAP	78	96	7
XTP	78	192	0
XTP	78	192	4
HLD	79	0	2	96
TAP	79	96	3
TAP	79	192	1
TAP	79	192	4
TAP	79	288	1
TAP	79	288	4
HLD	80	0	5	96
TAP	80	96	4
TAP	80	192	3
TAP	80	192	6
TAP	80	288	3
TAP	80	288	6
TAP	81	0	7
TAP	81	48	7
TAP	81	96	7
TAP	81	192	0
TAP	81	240	0
TAP	81	288	0
TAP	82	0	0
TAP	82	0	7
TAP	82	96	1
TAP	82	96	6
TAP	82	192	2
TAP	82	192	5
STR	82	288	3
SCL	82	288	3	96	384	0
STR	82	288	4
SCR	82	288	4	96	384	7
BRK	84	192	1
BRK	84	192	6
BRK	84	288	1
BRK	84	288	6
TAP	85	0	2
TAP	85	48	2
TAP	85	96	2
TAP	85	192	4
TAP	85	240	4
TAP	85	288	4
TAP	86	0	3
TAP	86	48	3
TAP	86	96	3
TAP	86	192	1
TAP	86	192	4
STR	87	0	0
SI_	87	0	0	96	288	4
STR	87	0	1
SI_	87	0	1	96	288	5
XTP	88	192	3
XTP	88	192	6
XTP	88	288	3
XTP	88	288	6
TAP	89	0	7
TAP	89	48	7
TAP	89	96	7
TAP	89	192	0
TAP	89	240	0
TAP	89	288	0
TAP	90	0	0
TAP	90	0	7
TAP	90	48	0
TAP	90	48	7
TAP	90	96	0
TAP	90	96	7
XTP	90	192	1
XTP	90	192	6
XHO	91	0	1	192
XHO	91	0	7	192
XHO	92	0	0	192
XHO	92	0	7	192
XHO	93	0	7	192
XHO	94	0	6	192
XTP	95	0	5
TAP	95	96	5
XTP	95	192	4
TAP	95	288	4
XTP	96	0	3
XTP	96	96	2
XTP	96	192	1
XST	96	288	0
SCL	96	288	0	96	288	3
TAP	98	96	1
BRK	98	192	1
BRK	98	192	7
TAP	99	0	2
TAP	99	0	3
TAP	99	96	2
TAP	99	96	3
TAP	99	192	4
TAP	99	192	5
TAP	99	288	4
TAP	99	288	5
TAP	100	0	6
TAP	100	0	7
TAP	100	96	6
TAP	100	96	7
BRK	100	192	0
BRK	100	288	0
TAP	101	0	1
TAP	101	0	3
TAP	101	96	2
TAP	101	192	3
TAP	101	192	4
TAP	101	288	5
XTP	102	0	4
XTP	102	0	6
XTP	102	96	1
XTP	102	96	3
XTP	102	192	3
XTP	102	192	4
BRK	102	288	1
BRK	102	288	6
TAP	103	0	3
TAP	103	0	5
XTP	103	96	0
XTP	103	96	7
TAP	103	192	2
TAP	103	192	4
XTP	103	288	0
XTP	103	288	7
TAP	104	0	3
TAP	104	0	5
XTP	104	96	0
XTP	104	96	1
TAP	104	192	2
TAP	104	192	4
XTP	104	288	6
XTP	104	288	7
TAP	105	0	4
TAP	105	0	5
TAP	105	48	4
TAP	105	48	5
TAP	105	96	4
TAP	105	96	5
TAP	105	192	2
TAP	105	192	3
TAP	105	240	2
TAP	105	240	3
TAP	105	288	2
TAP	105	288	3
THO	106	0	0	288	C	1	L1
TTP	106	0	1	B	0	L1
TTP	106	0	6	B	0	L1

T_REC_TAP	273
T_REC_BRK	14
T_REC_XTP	55
T_REC_HLD	28
T_REC_XHO	7
T_REC_STR	14
T_REC_BST	1
T_REC_XST	1
T_REC_TTP	14
T_REC_THO	3
T_REC_SLD	16
T_REC_ALL	426
T_NUM_TAP	357
T_NUM_BRK	15
T_NUM_HLD	38
T_NUM_SLD	16
T_NUM_ALL	426
T_JUDGE_TAP	372
T_JUDGE_HLD	122
T_JUDGE_SLD	16
T_JUDGE_ALL	510
TTM_EACHPAIRS	126
TTM_SCR_TAP	178500
TTM_SCR_BRK	39000
TTM_SCR_HLD	38000
TTM_SCR_SLD	24000
TTM_SCR_ALL	279500
TTM_SCR_S	269700
TTM_SCR_SS	278000
TTM_RAT_ACV	10053

