VERSION	0.00.00	1.03.00
FES_MODE	0
BPM_DEF	200.000	200.000	200.000	200.000
MET_DEF	4	4
RESOLUTION	384
CLK_DEF	384
COMPATIBLE_CODE	MA2

BPM	0	0	200.000
MET	0	0	4	4

TAP	3	0	0
TAP	3	96	0
TAP	3	192	0
TAP	4	0	1
TAP	4	96	1
TAP	4	192	1
TAP	5	0	2
TAP	5	96	2
TAP	5	192	2
XTP	6	0	3
XTP	6	0	4
XTP	6	192	3
XTP	6	192	4
TAP	7	0	4
TAP	7	96	4
TAP	7	192	4
TAP	8	0	5
TAP	8	96	5
TAP	8	192	5
TAP	9	0	6
TAP	9	96	6
TAP	9	192	6
XTP	10	0	0
XTP	10	0	7
STR	11	0	6
SI_	11	0	6	96	288	2
STR	13	0	1
SI_	13	0	1	96	288	5
STR	15	0	6
SI_	15	0	6	96	288	2
TAP	17	0	1
TAP	17	192	1
HLD	18	0	0	192
TAP	19	0	7
TAP	19	96	7
TAP	19	192	6
TAP	20	0	5
TAP	20	96	5
TAP	20	192	4
TAP	21	0	3
TAP	21	96	3
TAP	21	192	2
TAP	22	0	1
TAP	22	96	1
TAP	22	192	0
TAP	22	192	7
TAP	23	0	0
TAP	23	96	0
TAP	23	192	1
TAP	24	0	2
TAP	24	96	2
TAP	24	192	3
TAP	25	0	4
TAP	25	96	4
TAP	25	192	5
TAP	26	0	6
TAP	26	96	6
TAP	26	192	0
TAP	26	192	7
XTP	27	0	6
XTP	27	192	5
XTP	28	0	4
XTP	28	192	3
XTP	29	0	2
XTP	29	192	1
XTP	30	0	0
BRK	30	192	7
XTP	31	0	7
XTP	31	192	0
XTP	32	0	1
XTP	32	192	2
XTP	33	0	3
XTP	33	192	4
XTP	33	288	4
XTP	34	0	3
XTP	34	0	4
TTP	35	0	4	E	0	L1
TTP	35	192	3	E	0	L1
TTP	36	0	2	E	0	L1
TTP	36	192	1	E	0	L1
TTP	37	0	0	E	0	L1
TTP	37	192	7	E	0	L1
TTP	38	0	6	E	0	L1
TTP	38	192	5	E	0	L1
TTP	39	0	4	E	0	L1
TTP	39	192	2	B	0	L1
TTP	39	192	3	B	0	L1
TTP	40	0	4	B	0	L1
TTP	40	0	5	B	0	L1
TTP	40	192	0	B	0	L1
TTP	40	192	1	B	0	L1
TTP	41	0	6	B	0	L1
TTP	41	0	7	B	0	L1
TTP	41	192	0	C	1	L1
TAP	43	0	0
TAP	43	96	0
TAP	43	192	1
TAP	43	288	1
TAP	44	0	2
TAP	44	96	2
TAP	44	192	3
TAP	44	288	3
HLD	45	0	4	384
TAP	46	0	3
TAP	46	192	3
TAP	47	0	4
TAP	47	96	4
TAP	47	192	5
TAP	47	288	5
TAP	48	0	6
TAP	48	96	6
TAP	48	192	7
TAP	48	288	7
HLD	49	0	0	384
TAP	50	0	7
THO	51	0	0	1152	C	0	L1
TAP	55	0	7
TAP	56	0	7
TAP	57	0	0
BRK	58	0	0
TAP	59	0	7
TAP	59	96	7
TAP	59	192	6
TAP	59	288	6
TAP	60	0	5
TAP	60	96	5
TAP	60	192	4
TAP	60	288	4
TAP	61	0	3
TAP	61	96	3
TAP	61	192	2
TAP	61	288	2
TAP	62	0	1
TAP	62	96	1
TAP	62	192	0
TAP	62	192	7
TAP	63	0	0
TAP	63	96	0
TAP	63	192	1
TAP	63	288	1
TAP	64	0	2
TAP	64	96	2
TAP	64	192	3
TAP	64	288	3
TAP	65	0	4
TAP	65	96	4
TAP	65	192	5
TAP	65	288	5
TAP	66	0	6
TAP	66	96	6
TAP	66	192	0
TAP	66	192	7
HLD	67	0	6	192
HLD	67	0	7	192
HLD	68	0	4	192
HLD	68	0	5	192
HLD	69	0	2	192
HLD	69	0	3	192
HLD	70	0	0	192
HLD	70	0	1	192
TAP	71	0	0
TAP	71	0	1
TAP	71	192	0
TAP	71	192	1
TAP	72	0	2
TAP	72	0	3
TAP	72	192	2
TAP	72	192	3
TAP	73	0	4
TAP	73	0	5
TAP	73	192	4
TAP	73	192	5
TAP	74	0	6
TAP	74	0	7
TAP	74	192	6
TAP	74	192	7
TAP	75	0	0
TAP	75	96	0
TAP	75	192	0
TAP	75	192	7
TAP	76	0	1
TAP	76	96	1
TAP	76	192	0
TAP	76	192	1
TAP	77	0	2
TAP	77	96	2
TAP	77	192	2
TAP	77	192	3
TAP	78	0	3
TAP	78	96	3
TAP	78	192	3
TAP	78	192	4
TAP	79	0	5
TAP	79	96	5
TAP	79	192	4
TAP	79	192	5
TAP	80	0	6
TAP	80	96	6
TAP	80	192	6
TAP	80	192	7
TAP	81	0	7
TAP	81	96	7
TAP	81	192	0
TAP	81	192	7
BRK	82	0	0
STR	83	0	1
SI_	83	0	1	96	288	5
TAP	85	0	6
TAP	85	96	6
TAP	85	192	7
TAP	85	288	7
TAP	86	0	0
TAP	86	0	7
TAP	86	96	0
TAP	86	96	7
TAP	86	192	0
TAP	86	192	7
STR	87	0	6
SI_	87	0	6	96	288	2
TAP	89	0	1
TAP	89	96	1
TAP	89	192	0
TAP	89	288	0
TAP	90	0	0
TAP	90	0	7
TAP	90	96	0
TAP	90	96	7
TAP	90	192	0
TAP	90	192	7
XHO	91	0	1	192
XHO	91	0	7	192
XHO	92	0	0	192
XHO	92	0	7	192
XHO	93	0	7	192
XHO	94	0	6	192
XTP	95	0	5
XTP	95	192	4
XTP	96	0	3
XTP	96	96	2
XTP	96	192	1
XTP	96	288	0
XTP	97	0	7
XTP	97	96	7
XTP	97	192	0
XTP	97	288	0
XTP	98	0	0
XTP	98	0	7
XTP	98	96	0
XTP	98	96	7
XTP	98	192	1
XTP	98	192	6
TAP	99	0	7
TAP	99	96	7
TAP	99	192	6
TAP	99	288	6
TAP	100	0	5
TAP	100	96	4
TAP	100	192	3
TAP	100	288	2
TAP	101	0	1
TAP	101	96	1
TAP	101	192	0
TAP	101	288	0
TAP	102	0	0
TAP	102	0	7
TAP	102	96	0
TAP	102	96	7
TAP	102	192	1
TAP	102	192	6
TAP	103	0	0
TAP	103	96	0
TAP	103	192	1
TAP	103	288	1
TAP	104	0	2
TAP	104	96	3
TAP	104	192	4
TAP	104	288	5
TAP	105	0	6
TAP	105	96	7
TAP	105	192	0
TAP	105	288	1
TAP	106	0	2
TAP	106	96	3
TAP	106	192	3
TAP	106	192	4
XTP	106	288	2
XTP	106	288	5

T_REC_TAP	198
T_REC_BRK	3
T_REC_XTP	40
T_REC_HLD	11
T_REC_XHO	6
T_REC_STR	5
T_REC_BST	0
T_REC_XST	0
T_REC_TTP	18
T_REC_THO	1
T_REC_SLD	5
T_REC_ALL	287
T_NUM_TAP	261
T_NUM_BRK	3
T_NUM_HLD	18
T_NUM_SLD	5
T_NUM_ALL	287
T_JUDGE_TAP	264
T_JUDGE_HLD	100
T_JUDGE_SLD	5
T_JUDGE_ALL	369
TTM_EACHPAIRS	43
TTM_SCR_TAP	130500
TTM_SCR_BRK	7800
TTM_SCR_HLD	18000
TTM_SCR_SLD	7500
TTM_SCR_ALL	163800
TTM_SCR_S	158600
TTM_SCR_SS	163500
TTM_RAT_ACV	10018

