VERSION	0.00.00	1.03.00
FES_MODE	0
BPM_DEF	165.000	165.000	165.000	165.000
MET_DEF	4	4
RESOLUTION	384
CLK_DEF	384
COMPATIBLE_CODE	MA2

BPM	0	0	165.000
MET	0	0	4	4

TAP	2	0	3
TAP	2	0	4
TAP	2	48	5
TAP	2	144	5
TAP	2	240	5
TAP	2	336	5
TAP	3	0	4
TAP	3	48	5
TAP	3	144	5
TAP	3	240	5
TAP	3	336	5
TTP	4	0	4	E	0	M1
TAP	4	48	5
TAP	4	144	5
TTP	4	192	3	E	0	M1
TAP	4	240	5
TAP	4	336	5
TTP	5	0	1	E	0	M1
TAP	5	48	5
TTP	5	96	2	E	0	M1
TAP	5	144	5
TTP	5	192	3	E	0	M1
TAP	5	240	5
TAP	5	288	4
TAP	5	288	5
TAP	6	0	3
TAP	6	0	4
TAP	6	48	2
TAP	6	144	2
TAP	6	240	2
TAP	6	336	2
TTP	7	0	3	B	0	M1
TTP	7	0	4	B	0	M1
TAP	7	48	2
TAP	7	144	2
TAP	7	240	2
TAP	7	336	2
TTP	8	0	0	B	0	M1
TTP	8	0	7	B	0	M1
TAP	8	48	2
TAP	8	144	2
TTP	8	192	3	B	0	M1
TTP	8	192	4	B	0	M1
TAP	8	240	2
TAP	8	336	2
HLD	9	0	2	72
HLD	9	72	0	72
HLD	9	144	7	72
TAP	9	216	5
BRK	9	288	3
BRK	9	288	6
TAP	10	0	1
TAP	10	0	3
TAP	10	48	2
TAP	10	96	4
TAP	10	96	6
TAP	10	144	5
TAP	10	192	3
TAP	10	216	4
TAP	10	240	3
TAP	10	288	2
TAP	10	336	0
TAP	10	336	1
TAP	11	0	7
TAP	11	48	0
TAP	11	48	1
TAP	11	96	2
TAP	11	144	0
TAP	11	144	1
TAP	11	192	7
TAP	11	240	6
TAP	11	288	3
TAP	11	288	5
TAP	11	336	4
TAP	12	0	2
TAP	12	0	3
TAP	12	48	1
TAP	12	72	0
TAP	12	96	1
TAP	12	144	6
TAP	12	168	7
TAP	12	192	6
TAP	12	240	5
TAP	12	288	4
TAP	12	336	3
TAP	12	336	6
TAP	13	48	1
TAP	13	48	4
TAP	13	144	0
TAP	13	144	7
TAP	13	240	4
TAP	13	288	3
TAP	13	336	2
TAP	14	0	1
TAP	14	0	4
TAP	14	48	2
TAP	14	72	3
TAP	14	96	2
TAP	14	144	5
TAP	14	168	4
TAP	14	192	5
TAP	14	240	6
TAP	14	288	7
TAP	14	336	0
TAP	14	336	2
TAP	15	48	5
TAP	15	48	7
TAP	15	144	1
TAP	15	144	4
TAP	15	240	3
TAP	15	240	6
TAP	15	336	0
TAP	15	336	7
TAP	16	0	0
TAP	16	0	7
TAP	16	48	5
TAP	16	72	4
TAP	16	96	5
TAP	16	144	2
TAP	16	168	3
TAP	16	192	2
TAP	16	240	1
XTP	16	288	0
XTP	16	288	7
XTP	16	336	0
XTP	16	336	7
HLD	17	0	1	96
BRK	17	96	2
BRK	17	144	2
HLD	17	192	6	96
BRK	17	288	5
BRK	17	336	5
TAP	18	0	5
TAP	18	0	6
XTP	18	48	4
XTP	18	48	7
XTP	18	144	0
XTP	18	144	3
TAP	18	240	3
TAP	18	240	4
TTP	18	288	0	C	1	M1
TAP	19	0	6
TAP	19	24	7
TAP	19	48	6
TAP	19	96	5
TAP	19	120	4
TAP	19	144	5
TAP	19	192	3
TAP	19	192	6
TAP	19	240	2
TAP	19	288	1
TAP	19	312	0
TAP	19	336	1
TAP	20	0	2
TAP	20	24	3
TAP	20	48	2
TAP	20	96	1
TAP	20	96	4
TAP	20	192	0
TTP	20	192	6	E	0	M1
TTP	20	216	5	B	0	M1
TTP	20	240	4	B	0	M1
TTP	20	288	2	E	0	M1
TAP	20	288	7
TTP	20	312	2	B	0	M1
TTP	20	336	3	B	0	M1
TAP	21	0	6
TAP	21	24	7
TAP	21	48	6
TAP	21	72	7
TAP	21	96	6
TAP	21	144	1
TAP	21	168	0
TAP	21	192	1
TAP	21	216	0
TAP	21	240	1
BRK	21	288	2
BRK	21	288	7
HLD	22	0	0	48
HLD	22	0	4	48
HLD	22	72	2	48
HLD	22	72	6	48
HLD	22	144	1	48
HLD	22	144	5	48
HLD	22	216	3	48
HLD	22	216	7	48
BRK	22	288	2
BRK	22	288	6
TAP	23	0	1
TAP	23	24	0
TAP	23	48	1
TAP	23	96	2
TAP	23	120	3
TAP	23	144	2
TAP	23	192	1
TAP	23	192	4
TAP	23	240	5
TAP	23	288	6
TAP	23	312	7
TAP	23	336	6
TAP	24	0	5
TAP	24	24	4
TAP	24	48	5
TAP	24	96	3
TAP	24	96	6
TTP	24	192	2	E	0	M1
TAP	24	192	7
TTP	24	216	2	B	0	M1
TTP	24	240	3	B	0	M1
TAP	24	288	0
TTP	24	288	6	E	0	M1
TTP	24	312	5	B	0	M1
TTP	24	336	4	B	0	M1
TAP	25	0	1
TAP	25	24	0
TAP	25	48	1
TAP	25	72	0
TAP	25	96	1
TAP	25	144	6
TAP	25	168	7
TAP	25	192	6
TAP	25	216	7
TAP	25	240	6
TAP	25	288	3
TAP	25	288	4
TAP	25	336	3
TAP	25	336	4
TAP	26	48	0
TAP	26	48	2
TAP	26	144	5
TAP	26	144	7
BRK	26	240	1
BRK	26	240	6
HLD	27	0	2	96
TAP	27	96	3
TAP	27	144	4
HLD	27	192	5	96
TAP	27	288	4
TAP	28	0	6
TAP	28	48	6
TAP	28	96	4
TAP	28	144	4
HLD	28	192	5	72
HLD	28	264	7	72
TAP	28	336	0
HLD	29	0	2	72
HLD	29	72	1	72
TAP	29	144	0
STR	29	192	0
SXL	29	192	0	96	192	4
TAP	29	192	7
TAP	30	0	4
TAP	30	48	5
TAP	30	96	6
TAP	30	144	7
TAP	30	192	1
TAP	30	216	0
BRK	30	264	2
BRK	30	264	7
HLD	31	0	5	96
TAP	31	96	4
TAP	31	144	3
HLD	31	192	2	96
TAP	31	288	3
TAP	32	0	1
TAP	32	48	1
TAP	32	96	3
TAP	32	144	3
HLD	32	192	2	72
HLD	32	264	0	72
TAP	32	336	7
HLD	33	0	5	72
HLD	33	72	6	72
TAP	33	144	7
TAP	33	192	0
STR	33	192	7
SI_	33	192	7	96	48	3
TAP	33	288	1
HLD	33	336	2	96
TAP	34	48	0
TAP	34	144	5
TAP	34	144	7
TAP	34	240	3
TAP	34	240	4
BRK	34	288	2
BRK	34	288	5
HLD	35	0	1	72
HLD	35	72	2	72
TAP	35	144	3
TAP	35	192	3
TAP	35	192	4
TAP	35	288	2
TAP	35	288	5
TAP	36	0	6
TAP	36	48	6
TAP	36	96	4
TAP	36	144	5
HLD	36	192	2	72
HLD	36	264	0	72
TAP	36	336	7
HLD	37	0	5	72
HLD	37	72	6	72
TAP	37	144	7
STR	37	192	2
SXL	37	192	2	96	384	5
TTP	38	0	4	E	0	M1
TTP	38	96	6	E	0	M1
TTP	38	192	0	E	0	M1
TTP	38	288	2	E	0	M1
HLD	39	0	6	72
HLD	39	72	5	72
TAP	39	144	4
TAP	39	192	3
TAP	39	192	4
TAP	39	288	2
TAP	39	288	5
TAP	40	0	1
TAP	40	48	1
TAP	40	96	3
TAP	40	144	2
HLD	40	192	5	72
HLD	40	264	7	72
TAP	40	336	0
HLD	41	0	2	72
HLD	41	72	1	72
TAP	41	144	0
STR	41	192	7
SI_	41	192	7	96	48	3
XTP	41	336	1
BRK	42	0	0
BRK	42	0	4
TAP	42	96	4
TAP	42	96	5
TAP	42	192	2
TAP	42	192	3
TAP	42	288	3
TAP	42	288	4
BRK	43	0	0
BRK	43	0	7
TAP	43	96	2
TAP	43	96	3
TAP	43	144	5
TAP	43	168	4
STR	43	192	6
SI_	43	192	6	96	48	3
STR	43	264	3
SCR	43	264	3	96	48	6
TAP	43	336	7
TAP	44	0	0
TAP	44	48	1
TAP	44	96	2
TAP	44	96	3
TAP	44	144	6
TAP	44	168	4
STR	44	192	5
SI_	44	192	5	96	48	0
STR	44	264	0
SCL	44	264	0	96	48	5
TAP	44	336	4
TAP	45	0	3
TAP	45	48	2
TAP	45	96	1
TAP	45	96	3
TAP	45	144	0
TAP	45	168	7
TAP	45	192	0
TAP	45	240	5
TAP	45	264	4
TAP	45	288	5
TAP	45	336	2
TAP	45	336	3
TAP	46	0	0
TAP	46	0	1
STR	46	48	7
SI_	46	48	7	96	48	3
STR	46	144	6
SI_	46	144	6	96	48	2
TAP	46	240	4
TAP	46	288	5
TAP	46	336	6
BRK	47	0	3
BRK	47	0	7
TAP	47	96	4
TAP	47	96	5
TAP	47	144	2
TAP	47	168	3
STR	47	192	1
SI_	47	192	1	96	48	4
STR	47	264	4
SCL	47	264	4	96	48	1
TAP	47	336	0
TAP	48	0	7
TAP	48	48	6
TAP	48	96	4
TAP	48	96	5
TAP	48	144	1
TAP	48	168	3
TAP	48	192	2
TAP	48	240	3
STR	48	240	4
SCR	48	240	4	96	240	3
TTP	48	336	0	C	1	M1
TAP	49	288	3
TAP	49	288	4
TAP	49	336	3
TAP	49	336	4
TAP	50	48	0
TAP	50	48	2
TAP	50	144	5
TAP	50	144	7
TAP	50	192	1
TAP	50	216	0
TAP	50	240	2
TAP	50	264	7
TAP	50	288	3
TAP	50	312	6
TAP	50	336	4
TAP	50	360	5
BRK	51	0	3
BRK	51	0	6
TAP	51	48	2
TAP	51	96	0
TAP	51	96	1
TAP	51	144	6
TAP	51	168	7
STR	51	192	5
SI_	51	192	5	96	24	1
STR	51	264	1
SCR	51	264	1	96	48	4
TAP	51	336	7
TAP	52	0	0
TAP	52	48	1
TAP	52	96	2
TAP	52	96	3
TAP	52	144	5
TAP	52	168	4
STR	52	192	6
SI_	52	192	6	96	24	2
STR	52	264	2
SCL	52	264	2	96	48	7
TAP	52	336	4
STR	53	0	3
SI_	53	0	3	96	48	7
TAP	53	96	1
TAP	53	96	3
HLD	53	192	0	72
HLD	53	264	1	72
TAP	53	336	2
HLD	54	0	6	72
HLD	54	72	5	72
TAP	54	144	4
STR	54	192	3
SF_	54	192	3	96	48	7
TAP	54	288	3
BRK	55	0	1
BRK	55	0	4
TAP	55	48	5
TAP	55	96	6
TAP	55	96	7
TAP	55	144	1
TAP	55	168	0
STR	55	192	2
SI_	55	192	2	96	24	6
STR	55	264	6
SCL	55	264	6	96	48	3
TAP	55	336	0
TAP	56	0	7
TAP	56	48	6
TAP	56	96	4
TAP	56	96	5
TAP	56	144	2
TAP	56	168	3
STR	56	192	1
SI_	56	192	1	96	24	5
TAP	56	264	5
TAP	56	336	7
STR	57	0	0
SCR	57	0	0	96	192	7
STR	57	0	7
SCL	57	0	7	96	192	0
TTP	57	336	0	C	1	M1
TTP	57	336	2	E	0	M1
TTP	57	336	6	E	0	M1
TAP	58	192	0
TAP	58	216	7
TAP	58	240	1
TAP	58	264	6
TAP	58	288	3
TAP	58	312	4
TAP	58	336	2
TAP	58	360	5
TAP	59	0	1
TAP	59	24	0
TAP	59	48	1
TAP	59	72	0
TAP	59	96	2
TAP	59	120	3
TAP	59	144	2
TAP	59	192	1
TAP	59	192	4
TAP	59	240	5
TAP	59	288	6
TAP	59	312	7
TAP	59	336	6
TAP	59	360	7
TAP	60	0	5
TAP	60	24	4
TAP	60	48	5
TAP	60	96	3
TAP	60	96	6
TAP	60	192	0
TTP	60	192	1	B	0	M1
TTP	60	216	2	B	0	M1
TTP	60	240	3	E	0	M1
TTP	60	288	6	B	0	M1
TAP	60	288	7
TTP	60	312	5	B	0	M1
TTP	60	336	5	E	0	M1
TAP	61	0	1
TAP	61	24	0
TAP	61	48	2
TAP	61	72	0
TAP	61	96	1
TAP	61	144	6
TAP	61	168	7
TAP	61	192	5
TAP	61	216	7
TAP	61	240	6
TAP	61	288	2
TAP	61	312	3
TAP	61	336	2
HLD	62	0	0	48
HLD	62	0	7	48
HLD	62	72	4	48
HLD	62	72	5	48
HLD	62	144	1	48
HLD	62	144	3	48
HLD	62	216	2	48
HLD	62	216	6	48
BRK	62	288	0
BRK	62	288	4
TAP	63	0	6
TAP	63	24	7
TAP	63	48	6
TAP	63	72	7
TAP	63	96	5
TAP	63	120	4
TAP	63	144	5
TAP	63	192	3
TAP	63	192	6
TAP	63	240	2
TAP	63	288	1
TAP	63	312	0
TAP	63	336	1
TAP	63	360	0
TAP	64	0	2
TAP	64	24	3
TAP	64	48	2
TAP	64	96	1
TAP	64	96	4
TTP	64	192	6	B	0	M1
TAP	64	192	7
TTP	64	216	5	B	0	M1
TTP	64	240	5	E	0	M1
TAP	64	288	0
TTP	64	288	1	B	0	M1
TTP	64	312	2	B	0	M1
TTP	64	336	3	E	0	M1
TAP	65	0	6
TAP	65	24	7
TAP	65	48	5
TAP	65	72	7
TAP	65	96	6
TAP	65	144	1
TAP	65	168	0
TAP	65	192	2
TAP	65	216	0
TAP	65	240	1
TAP	65	288	3
TAP	65	288	4
TAP	65	336	1
TAP	65	336	6
TAP	66	48	5
TAP	66	48	7
TAP	66	144	0
TAP	66	144	2
BRK	66	240	1
BRK	66	240	6
STR	67	0	2
SCL	67	0	2	96	288	5
TAP	67	0	5
STR	68	0	4
SUL	68	0	4	96	288	3
STR	69	0	1
SUR	69	0	1	96	288	4
HLD	70	0	5	288
TAP	70	240	3
TAP	70	288	4
TAP	71	0	2
STR	71	0	6
SXL	71	0	6	96	288	3
STR	72	0	2
SXR	72	0	2	96	288	6
STR	73	0	4
SF_	73	0	4	96	288	0
TAP	74	96	2
TAP	74	96	5
TAP	74	192	3
TAP	74	216	4
TAP	74	240	2
TAP	74	264	5
TAP	74	288	1
TAP	74	312	6
TAP	74	336	0
TAP	74	360	7
BRK	75	0	1
BRK	75	0	6
TAP	75	96	3
TAP	75	96	4
TAP	75	144	2
TAP	75	144	5
STR	75	192	1
SI_	75	192	1	96	48	4
TAP	75	192	6
STR	75	264	4
SCL	75	264	4	96	48	0
TAP	75	336	7
TAP	76	0	7
TAP	76	48	6
TAP	76	72	7
TAP	76	96	5
TAP	76	144	3
TAP	76	168	4
STR	76	192	2
SI_	76	192	2	96	48	7
STR	76	264	7
SCR	76	264	7	96	48	3
TAP	76	336	4
TAP	77	0	4
TAP	77	48	5
TAP	77	72	4
TAP	77	96	6
TAP	77	144	0
TAP	77	168	7
TAP	77	192	1
TAP	77	240	3
TAP	77	264	2
TAP	77	288	4
TAP	77	336	4
TAP	77	336	5
TAP	78	0	6
TAP	78	0	7
STR	78	48	0
SI_	78	48	0	96	48	4
STR	78	144	1
SI_	78	144	1	96	48	5
TAP	78	240	3
TAP	78	288	2
TAP	78	336	1
BRK	79	0	0
BRK	79	0	4
TAP	79	48	1
TAP	79	72	3
TAP	79	96	2
TAP	79	144	5
TAP	79	168	4
STR	79	192	6
SI_	79	192	6	96	48	3
STR	79	264	3
SCR	79	264	3	96	48	7
TAP	79	336	0
TAP	80	0	0
TAP	80	48	1
TAP	80	72	0
TAP	80	96	2
TAP	80	144	4
TAP	80	168	3
TAP	80	192	5
STR	80	240	2
SCL	80	240	2	96	288	3
TAP	80	240	6
THO	80	336	0	192	C	1	M1
TAP	81	336	0
TAP	81	336	7
TAP	82	48	4
TAP	82	48	6
TAP	82	144	1
TAP	82	144	3
TAP	82	192	6
TAP	82	216	7
TAP	82	240	5
TAP	82	264	0
TAP	82	288	4
TAP	82	312	1
TAP	82	336	3
TAP	82	360	2
BRK	83	0	1
BRK	83	0	4
TAP	83	48	6
TAP	83	72	7
TAP	83	96	5
TAP	83	144	3
TAP	83	168	4
STR	83	192	2
SI_	83	192	2	96	24	6
STR	83	264	6
SCL	83	264	6	96	48	2
TAP	83	336	0
TAP	84	0	0
TAP	84	48	6
TAP	84	72	7
TAP	84	96	5
TAP	84	144	2
TAP	84	168	3
STR	84	192	1
SI_	84	192	1	96	24	5
STR	84	264	5
SCR	84	264	5	96	48	1
TAP	84	336	3
STR	85	0	4
SI_	85	0	4	96	48	0
TAP	85	96	4
TAP	85	96	6
HLD	85	192	7	72
HLD	85	264	6	72
TAP	85	336	5
HLD	86	0	1	72
HLD	86	72	2	72
TAP	86	144	3
STR	86	192	4
SF_	86	192	4	96	48	0
TAP	86	288	4
BRK	87	0	2
BRK	87	0	6
TAP	87	48	1
TAP	87	72	0
TAP	87	96	2
TAP	87	144	6
TAP	87	168	7
STR	87	192	5
SI_	87	192	5	96	24	1
STR	87	264	1
SCR	87	264	1	96	48	5
TAP	87	336	7
TAP	88	0	7
TAP	88	48	1
TAP	88	72	0
TAP	88	96	2
TAP	88	144	5
TAP	88	168	4
STR	88	192	6
SI_	88	192	6	96	24	2
TAP	88	264	2
TAP	88	336	0
STR	89	0	0
SCR	89	0	0	96	192	7
STR	89	0	7
SCL	89	0	7	96	192	0
TTP	89	336	0	C	1	M1
TTP	89	336	2	E	0	M1
TTP	89	336	6	E	0	M1
TAP	90	192	1
TAP	90	216	7
TAP	90	240	0
TAP	90	264	6
TAP	90	288	1
TAP	90	312	7
TAP	90	336	3
TAP	90	360	5
BRK	91	0	7

T_REC_TAP	519
T_REC_BRK	39
T_REC_XTP	9
T_REC_HLD	55
T_REC_XHO	0
T_REC_STR	50
T_REC_BST	0
T_REC_XST	0
T_REC_TTP	47
T_REC_THO	1
T_REC_SLD	50
T_REC_ALL	770
T_NUM_TAP	625
T_NUM_BRK	39
T_NUM_HLD	56
T_NUM_SLD	50
T_NUM_ALL	770
T_JUDGE_TAP	664
T_JUDGE_HLD	102
T_JUDGE_SLD	50
T_JUDGE_ALL	816
TTM_EACHPAIRS	110
TTM_SCR_TAP	312500
TTM_SCR_BRK	101400
TTM_SCR_HLD	56000
TTM_SCR_SLD	75000
TTM_SCR_ALL	544900
TTM_SCR_S	524800
TTM_SCR_SS	541000
TTM_RAT_ACV	10072

