VERSION	0.00.00	1.03.00
FES_MODE	0
BPM_DEF	165.000	165.000	165.000	165.000
MET_DEF	4	4
RESOLUTION	384
CLK_DEF	384
COMPATIBLE_CODE	MA2

BPM	0	0	165.000
MET	0	0	4	4

TAP	2	0	5
HLD	2	48	5	1440
TAP	2	144	4
TAP	2	240	4
TAP	2	336	4
TAP	3	48	4
TAP	3	144	4
TAP	3	240	4
TAP	3	336	4
TAP	4	48	3
TAP	4	144	3
TAP	4	240	4
TAP	4	336	4
TAP	5	48	3
TAP	5	144	3
TAP	5	240	4
TAP	5	336	4
TAP	6	0	3
HLD	6	48	2	288
TAP	6	144	3
TAP	6	240	3
TAP	6	336	3
TAP	7	0	4
HLD	7	48	5	288
TAP	7	144	4
TAP	7	240	4
TAP	7	336	4
TAP	8	0	3
TAP	8	72	2
TAP	8	144	2
TAP	8	144	4
TAP	8	240	3
TAP	8	240	5
TAP	8	336	2
TAP	8	336	4
HLD	9	0	1	72
HLD	9	72	3	72
HLD	9	144	4	72
HLD	9	216	6	72
TAP	9	288	0
TAP	10	0	7
TAP	10	96	0
TAP	10	96	6
TAP	10	192	2
TAP	10	240	2
TAP	10	336	1
TAP	10	336	4
TAP	11	48	3
TAP	11	48	6
TAP	11	144	1
TAP	11	144	4
TAP	11	240	3
TAP	11	240	6
TAP	11	336	1
TAP	12	0	1
TAP	12	48	3
TAP	12	96	2
TAP	12	144	5
TAP	12	192	4
HLD	12	240	6	96
TAP	12	336	3
TAP	13	48	1
TAP	13	48	4
TAP	13	144	3
TAP	13	144	6
TAP	13	240	1
TAP	13	240	4
TAP	13	336	6
TAP	14	0	6
TAP	14	48	4
TAP	14	96	5
TAP	14	144	2
TAP	14	192	3
HLD	14	240	1	96
TAP	14	336	4
TAP	15	48	3
TAP	15	48	6
TAP	15	144	1
TAP	15	144	4
TAP	15	240	3
TAP	15	240	6
TAP	15	336	1
TAP	16	0	1
TAP	16	48	3
TAP	16	96	2
TAP	16	144	5
TAP	16	192	4
TAP	16	240	6
HLD	16	288	6	96
XTP	17	0	5
HLD	17	96	1	96
XTP	17	192	2
TAP	17	288	3
TAP	17	288	4
TAP	18	0	4
TAP	18	0	6
TAP	18	96	1
TAP	18	96	3
TAP	18	192	4
TAP	18	192	6
TAP	18	240	7
BRK	18	288	0
TAP	19	0	5
TAP	19	48	5
TAP	19	96	4
HLD	19	144	6	96
TAP	19	240	0
TAP	19	288	0
TAP	19	336	7
TAP	20	0	7
HLD	20	48	2	96
TAP	20	144	3
TAP	20	192	2
TAP	20	288	1
TAP	20	288	5
STR	21	0	7
SI_	21	0	7	96	96	3
STR	21	192	0
SI_	21	192	0	96	96	4
TAP	22	0	6
TAP	22	48	6
TAP	22	96	4
TAP	22	144	7
TAP	22	192	0
TAP	22	288	1
TAP	22	288	5
TAP	23	0	2
TAP	23	48	2
TAP	23	96	3
HLD	23	144	1	96
TAP	23	240	7
TAP	23	288	7
TAP	23	336	0
TAP	24	0	0
HLD	24	48	5	96
TAP	24	144	4
TAP	24	192	5
TAP	24	288	2
TAP	24	288	6
STR	25	0	0
SI_	25	0	0	96	96	4
HLD	25	192	6	96
TAP	25	288	4
TAP	25	336	4
TAP	26	48	1
TAP	26	48	3
TAP	26	144	4
TAP	26	144	6
BRK	26	240	0
HLD	27	0	5	384
STR	27	96	4
SCL	27	96	4	96	144	0
XTP	28	96	6
STR	28	192	7
SI_	28	192	7	96	96	4
HLD	29	0	1	72
HLD	29	72	2	72
TAP	29	144	3
TAP	29	192	3
TAP	29	288	2
TAP	29	288	7
TAP	30	0	0
TAP	30	0	5
HLD	30	96	2	96
TAP	30	192	3
TAP	30	240	3
TAP	30	288	1
TAP	30	288	4
HLD	31	0	2	384
STR	31	96	3
SCR	31	96	3	96	144	7
XTP	32	96	1
STR	32	192	0
SI_	32	192	0	96	96	3
HLD	33	0	6	72
HLD	33	72	5	72
TAP	33	144	4
TAP	33	192	4
TAP	33	288	0
TAP	33	336	0
TAP	34	48	1
TAP	34	48	7
TAP	34	144	0
TAP	34	144	6
TAP	34	240	3
TAP	34	240	4
TAP	34	288	2
TAP	34	288	5
STR	35	0	6
SI_	35	0	6	96	96	2
STR	35	192	1
SI_	35	192	1	96	96	4
TAP	36	0	5
TAP	36	48	5
TAP	36	96	4
HLD	36	192	6	72
HLD	36	264	5	72
TAP	36	336	4
HLD	37	0	1	72
HLD	37	72	2	72
TAP	37	144	3
TAP	37	192	3
TAP	37	288	4
TAP	37	288	5
TAP	38	0	1
TAP	38	0	4
TAP	38	96	2
TAP	38	96	3
TAP	38	192	3
TAP	38	192	6
TAP	38	288	4
TAP	38	288	5
STR	39	0	1
SI_	39	0	1	96	96	5
STR	39	192	6
SI_	39	192	6	96	96	3
TAP	40	0	2
TAP	40	48	2
TAP	40	96	3
HLD	40	192	1	72
HLD	40	264	2	72
TAP	40	336	3
HLD	41	0	4	72
HLD	41	72	5	72
TAP	41	144	6
XHO	41	192	0	96
XHO	41	192	7	96
XTP	41	336	1
XTP	41	336	6
BRK	42	0	1
BRK	42	0	6
BRK	42	192	0
BRK	42	192	7
BRK	42	288	2
BRK	42	288	5
TTP	43	0	0	C	1	M1
TTP	43	0	1	B	0	M1
TTP	43	0	6	B	0	M1
TAP	43	144	7
HLD	43	192	7	72
HLD	43	264	5	72
TAP	43	336	4
TAP	44	0	4
TAP	44	96	3
TAP	44	96	5
TAP	44	144	3
TAP	44	144	5
HLD	44	240	1	96
TAP	44	336	0
TAP	45	0	0
TAP	45	96	3
TAP	45	144	2
TAP	45	144	4
TAP	45	240	5
STR	45	336	6
SCL	45	336	6	96	96	3
STR	45	336	7
SCR	45	336	7	96	96	2
TAP	46	0	6
TAP	46	0	7
XTP	46	240	1
XTP	46	240	4
XTP	46	288	1
XTP	46	288	4
XTP	47	0	3
XTP	47	0	6
TAP	47	96	0
HLD	47	144	0	96
TAP	47	240	2
TAP	47	288	2
TAP	48	0	3
TAP	48	0	5
TAP	48	96	7
HLD	48	144	7	96
STR	48	240	5
SCL	48	240	5	96	288	7
XTP	49	336	0
XTP	49	336	7
XTP	50	48	4
XTP	50	48	6
XTP	50	144	1
XTP	50	144	3
XTP	50	240	0
XTP	50	288	0
XTP	50	288	7
BRK	51	0	1
BRK	51	0	6
TAP	51	96	4
TAP	51	144	4
TAP	51	240	2
TAP	51	240	6
TAP	51	336	3
TAP	52	0	3
TAP	52	96	1
TAP	52	96	4
TAP	52	144	1
TAP	52	144	4
HLD	52	240	6	96
TAP	52	336	7
TAP	53	0	7
TAP	53	96	0
TAP	53	144	0
HLD	53	192	1	72
HLD	53	264	2	72
TAP	53	336	3
HLD	54	0	4	72
HLD	54	72	5	72
TAP	54	144	6
TAP	54	192	6
XTP	54	288	3
XTP	54	288	6
XTP	55	0	1
XTP	55	0	4
TAP	55	96	5
TAP	55	144	5
TAP	55	240	7
TAP	55	288	0
HLD	56	0	1	96
HLD	56	0	6	96
XTP	56	144	0
XTP	56	144	7
XTP	56	192	0
XTP	56	192	7
XTP	56	264	1
XTP	56	264	6
XTP	56	336	2
XTP	56	336	5
XTP	57	0	2
XTP	57	0	5
TAP	57	96	4
TAP	57	96	6
TAP	57	192	1
TAP	57	192	3
BRK	57	288	0
BRK	57	288	7
BST	57	336	1
SI_	57	336	1	96	96	4
BST	57	336	6
SI_	57	336	6	96	96	3
TAP	58	192	0
TAP	58	192	7
TAP	58	288	3
TAP	58	288	4
TAP	59	0	2
TAP	59	48	2
TAP	59	96	3
HLD	59	144	1	96
TAP	59	240	7
TAP	59	288	7
TAP	59	336	0
TAP	60	0	0
HLD	60	48	5	96
TAP	60	144	4
TAP	60	192	5
TAP	60	288	2
TAP	60	288	6
STR	61	0	0
SI_	61	0	0	96	96	4
STR	61	192	7
SI_	61	192	7	96	96	3
TAP	62	0	1
TAP	62	48	1
TAP	62	96	3
TAP	62	144	0
TAP	62	192	7
TAP	62	288	2
TAP	62	288	6
TAP	63	0	5
TAP	63	48	5
TAP	63	96	4
HLD	63	144	6	96
TAP	63	240	0
TAP	63	288	0
TAP	63	336	7
TAP	64	0	7
HLD	64	48	2	96
TAP	64	144	3
TAP	64	192	2
TAP	64	288	1
TAP	64	288	5
STR	65	0	7
SI_	65	0	7	96	96	3
HLD	65	192	1	96
TAP	65	288	3
TAP	65	336	3
TAP	66	48	4
TAP	66	48	6
TAP	66	144	1
TAP	66	144	3
BRK	66	240	7
XST	67	0	0
SCR	67	0	0	96	192	5
TTP	67	192	0	C	0	M1
STR	68	0	7
SCL	68	0	7	96	192	2
TTP	68	192	0	C	0	M1
STR	69	0	0
SCR	69	0	0	96	192	5
TTP	69	192	0	C	0	M1
HLD	70	0	7	192
TAP	70	192	0
TAP	70	288	0
XST	71	0	6
SCL	71	0	6	96	192	1
TTP	71	192	0	C	0	M1
STR	72	0	1
SCR	72	0	1	96	192	6
TTP	72	192	0	C	0	M1
STR	73	0	7
SXL	73	0	7	96	192	4
TAP	74	0	3
TAP	74	48	3
TAP	74	96	4
TAP	74	144	4
TAP	74	192	2
TAP	74	240	2
TAP	74	288	6
TAP	74	336	6
BRK	75	0	1
TAP	75	144	0
HLD	75	192	0	72
HLD	75	264	2	72
TAP	75	336	3
TAP	76	0	3
TAP	76	96	2
TAP	76	96	4
TAP	76	144	2
TAP	76	144	4
HLD	76	240	6	96
TAP	76	336	7
TAP	77	0	7
TAP	77	96	4
TAP	77	144	3
TAP	77	144	5
TAP	77	240	2
STR	77	336	0
SUR	77	336	0	96	96	5
STR	77	336	1
SCR	77	336	1	96	96	4
TAP	78	0	0
TAP	78	0	1
XTP	78	240	3
XTP	78	240	6
XTP	78	288	3
XTP	78	288	6
XTP	79	0	1
XTP	79	0	4
TAP	79	96	7
HLD	79	144	7	96
TAP	79	240	5
TAP	79	288	5
TAP	80	0	2
TAP	80	0	4
TAP	80	96	0
HLD	80	144	0	96
STR	80	240	2
SCR	80	240	2	96	288	0
XTP	81	336	0
XTP	81	336	7
XTP	82	48	1
XTP	82	48	3
XTP	82	144	4
XTP	82	144	6
XTP	82	240	7
XTP	82	288	0
XTP	82	288	7
BRK	83	0	1
BRK	83	0	6
TAP	83	96	3
TAP	83	144	3
TAP	83	240	1
TAP	83	240	5
TAP	83	336	4
TAP	84	0	4
TAP	84	96	3
TAP	84	96	6
TAP	84	144	3
TAP	84	144	6
HLD	84	240	1	96
TAP	84	336	0
TAP	85	0	0
TAP	85	96	4
TAP	85	144	4
HLD	85	192	5	72
HLD	85	264	6	72
TAP	85	336	7
HLD	86	0	0	72
HLD	86	72	1	72
TAP	86	144	2
TAP	86	192	2
XTP	86	288	1
XTP	86	288	4
XTP	87	0	3
XTP	87	0	6
TAP	87	96	2
TAP	87	144	2
TAP	87	240	0
TAP	87	288	7
HLD	88	0	1	96
HLD	88	0	6	96
XTP	88	144	0
XTP	88	144	7
XTP	88	192	0
XTP	88	192	7
XTP	88	264	1
XTP	88	264	6
XTP	88	336	2
XTP	88	336	5
XTP	89	0	2
XTP	89	0	5
TAP	89	96	1
TAP	89	96	3
TAP	89	192	4
TAP	89	192	6
BRK	89	288	0
BRK	89	288	7
BST	89	336	1
SI_	89	336	1	96	96	4
BST	89	336	6
SI_	89	336	6	96	96	3
XTP	90	192	0
XTP	90	192	7
XTP	90	288	3
XTP	90	288	4
TTP	91	0	0	C	1	M1
TTP	91	0	1	B	0	M1
TTP	91	0	2	B	0	M1
TTP	91	0	5	B	0	M1
TTP	91	0	6	B	0	M1

T_REC_TAP	307
T_REC_BRK	18
T_REC_XTP	68
T_REC_HLD	61
T_REC_XHO	2
T_REC_STR	24
T_REC_BST	4
T_REC_XST	2
T_REC_TTP	13
T_REC_THO	0
T_REC_SLD	30
T_REC_ALL	529
T_NUM_TAP	414
T_NUM_BRK	22
T_NUM_HLD	63
T_NUM_SLD	30
T_NUM_ALL	529
T_JUDGE_TAP	436
T_JUDGE_HLD	176
T_JUDGE_SLD	30
T_JUDGE_ALL	642
TTM_EACHPAIRS	107
TTM_SCR_TAP	207000
TTM_SCR_BRK	57200
TTM_SCR_HLD	63000
TTM_SCR_SLD	45000
TTM_SCR_ALL	372200
TTM_SCR_S	358900
TTM_SCR_SS	370000
TTM_RAT_ACV	10059

