VERSION	0.00.00	1.03.00
FES_MODE	0
BPM_DEF	165.000	165.000	165.000	165.000
MET_DEF	4	4
RESOLUTION	384
CLK_DEF	384
COMPATIBLE_CODE	MA2

BPM	0	0	165.000
MET	0	0	4	4

XST	2	0	6
SUL	2	0	6	96	480	3
XST	4	0	1
SUR	4	0	1	96	480	4
STR	6	0	5
SI_	6	0	5	96	192	0
STR	7	0	1
SI_	7	0	1	96	192	4
TAP	8	0	5
TAP	8	192	3
TAP	8	192	4
XTP	9	0	2
XTP	9	0	5
XTP	9	96	2
XTP	9	96	5
XTP	9	192	1
XTP	9	192	6
TAP	10	0	6
TAP	10	96	6
TAP	10	192	7
TAP	11	0	1
TAP	11	96	1
TAP	11	192	0
TAP	12	0	6
TAP	12	96	6
TAP	12	192	7
TAP	13	0	0
TAP	13	96	0
TAP	13	192	1
TAP	13	192	7
TAP	14	0	2
TAP	14	96	2
TAP	14	192	3
TAP	15	0	5
TAP	15	96	5
TAP	15	192	4
TAP	16	0	2
TAP	16	96	2
TAP	16	192	3
TAP	16	288	3
TAP	17	0	4
TAP	17	0	5
TAP	17	192	2
TAP	17	192	3
TAP	18	0	3
TAP	18	0	4
TAP	18	96	3
TAP	18	96	4
XTP	18	192	2
XTP	18	192	5
TAP	19	0	2
TAP	19	96	2
TAP	19	192	2
TAP	19	192	3
TAP	20	0	5
TAP	20	96	5
TAP	20	192	4
TAP	20	192	5
TAP	21	0	2
TAP	21	96	2
TAP	21	192	3
TAP	21	288	3
TAP	22	0	4
TAP	22	96	4
TAP	22	192	3
TAP	22	192	5
TAP	23	0	6
TAP	23	96	6
TAP	23	192	6
TAP	23	192	7
TAP	24	0	1
TAP	24	96	1
TAP	24	192	0
TAP	24	192	1
TAP	25	0	6
TAP	25	96	6
TAP	25	192	7
TAP	25	288	7
XTP	26	0	0
XTP	26	0	7
XTP	26	96	0
XTP	26	96	7
XTP	26	192	1
XTP	26	192	6
HLD	27	0	2	192
TAP	27	192	3
HLD	28	0	5	192
TAP	28	192	4
HLD	29	0	2	192
TAP	29	192	3
TAP	30	0	5
TAP	30	96	5
TAP	30	192	5
HLD	31	0	6	192
TAP	31	192	7
HLD	32	0	1	192
TAP	32	192	0
HLD	33	0	6	192
TAP	33	192	7
TAP	34	0	1
TAP	34	96	1
TAP	34	192	0
TAP	34	192	7
TTP	35	0	0	B	0	L1
TTP	35	0	1	B	0	L1
TTP	36	0	2	B	0	L1
TTP	36	0	3	B	0	L1
TTP	37	0	4	B	0	L1
TTP	37	0	5	B	0	L1
TTP	38	0	6	B	0	L1
TTP	38	0	7	B	0	L1
TTP	39	0	1	E	0	L1
TTP	39	0	7	E	0	L1
TTP	40	0	1	B	0	L1
TTP	40	0	6	B	0	L1
TTP	41	0	2	B	0	L1
TTP	41	0	5	B	0	L1
TTP	42	0	0	C	1	L1
TTP	42	0	3	B	0	L1
TTP	42	0	4	B	0	L1
TAP	43	0	1
TAP	43	96	1
TAP	43	192	0
TAP	43	192	1
TAP	43	288	0
TAP	43	288	1
TAP	44	0	2
TAP	44	96	3
TAP	44	192	2
TAP	44	192	4
TAP	45	0	5
TAP	45	96	5
TAP	45	192	4
TAP	45	192	5
TAP	45	288	4
TAP	45	288	5
TAP	46	0	6
TAP	46	96	7
TAP	46	192	0
TAP	46	192	6
TAP	47	0	7
TAP	47	96	6
TAP	47	192	6
TAP	47	192	7
TAP	47	288	6
TAP	47	288	7
TAP	48	0	5
TAP	48	96	4
TAP	48	192	3
TAP	48	192	5
TAP	49	0	2
TAP	49	96	2
TAP	49	192	2
TAP	49	192	3
TAP	49	288	2
TAP	49	288	3
TAP	50	0	1
TAP	50	96	0
TAP	50	96	7
XTP	50	192	1
XTP	50	192	6
STR	51	0	2
SCR	51	0	2	96	192	5
STR	52	0	6
SCR	52	0	6	96	192	1
STR	53	0	2
SCR	53	0	2	96	192	5
TAP	54	0	6
TAP	54	192	0
TAP	54	192	7
STR	55	0	1
SI_	55	0	1	96	192	4
STR	56	0	5
SI_	56	0	5	96	192	0
TAP	57	0	1
TAP	57	192	1
TAP	58	0	0
TAP	58	0	7
TAP	58	96	0
TAP	58	96	7
BRK	58	192	1
BRK	58	192	6
TAP	59	0	5
TAP	59	96	5
TAP	59	192	4
TAP	59	192	5
TAP	60	0	2
TAP	60	96	2
TAP	60	192	2
TAP	60	192	3
TAP	61	0	5
TAP	61	96	5
TAP	61	192	4
TAP	61	288	4
TAP	62	0	3
TAP	62	96	3
TAP	62	192	2
TAP	62	192	4
TAP	63	0	1
TAP	63	96	1
TAP	63	192	0
TAP	63	192	1
TAP	64	0	6
TAP	64	96	6
TAP	64	192	6
TAP	64	192	7
TAP	65	0	1
TAP	65	96	1
TAP	65	192	0
TAP	65	288	0
TAP	66	0	0
TAP	66	0	7
TAP	66	96	0
TAP	66	96	7
XTP	66	192	1
XTP	66	192	6
HLD	67	0	2	384
HLD	68	0	3	384
HLD	69	0	4	384
XTP	70	0	5
HLD	71	0	6	384
HLD	72	0	7	384
HLD	73	0	0	384
XTP	74	0	1
TAP	74	192	2
TAP	74	192	7
TAP	75	0	1
TAP	75	96	0
TAP	75	96	1
TAP	75	192	1
TAP	75	288	0
TAP	75	288	1
TAP	76	0	2
TAP	76	96	3
TAP	76	192	2
TAP	76	192	4
TAP	77	0	5
TAP	77	96	4
TAP	77	96	5
TAP	77	192	5
TAP	77	288	4
TAP	77	288	5
TAP	78	0	6
TAP	78	96	7
TAP	78	192	0
TAP	78	192	6
TAP	79	0	7
TAP	79	96	6
TAP	79	96	7
TAP	79	192	6
TAP	79	288	6
TAP	79	288	7
TAP	80	0	5
TAP	80	96	4
TAP	80	192	3
TAP	80	192	5
TAP	81	0	2
TAP	81	96	2
TAP	81	96	3
TAP	81	192	2
TAP	81	288	2
TAP	81	288	3
TAP	82	0	1
TAP	82	96	0
TAP	82	96	7
XTP	82	192	1
XTP	82	192	6
STR	83	0	5
SCL	83	0	5	96	192	2
STR	84	0	1
SCL	84	0	1	96	192	6
STR	85	0	5
SCL	85	0	5	96	192	2
TAP	86	0	1
TAP	86	192	0
TAP	86	192	7
STR	87	0	6
SI_	87	0	6	96	192	3
STR	88	0	2
SI_	88	0	2	96	192	7
STR	89	0	6
SXL	89	0	6	96	480	3
BRK	91	0	2
BRK	91	0	5

T_REC_TAP	199
T_REC_BRK	4
T_REC_XTP	22
T_REC_HLD	12
T_REC_XHO	0
T_REC_STR	13
T_REC_BST	0
T_REC_XST	2
T_REC_TTP	17
T_REC_THO	0
T_REC_SLD	15
T_REC_ALL	284
T_NUM_TAP	253
T_NUM_BRK	4
T_NUM_HLD	12
T_NUM_SLD	15
T_NUM_ALL	284
T_JUDGE_TAP	257
T_JUDGE_HLD	72
T_JUDGE_SLD	15
T_JUDGE_ALL	344
TTM_EACHPAIRS	60
TTM_SCR_TAP	126500
TTM_SCR_BRK	10400
TTM_SCR_HLD	12000
TTM_SCR_SLD	22500
TTM_SCR_ALL	171400
TTM_SCR_S	165900
TTM_SCR_SS	171000
TTM_RAT_ACV	10023

