VERSION	0.00.00	1.03.00
FES_MODE	0
BPM_DEF	165.000	165.000	165.000	165.000
MET_DEF	4	4
RESOLUTION	384
CLK_DEF	384
COMPATIBLE_CODE	MA2

BPM	0	0	165.000
MET	0	0	4	4

TAP	6	0	0
TAP	7	0	0
TAP	8	0	7
BRK	9	0	7
TAP	10	0	0
TAP	11	0	0
TAP	12	0	1
TAP	13	0	1
TAP	14	0	2
TAP	15	0	2
TAP	16	0	3
XTP	17	0	3
XTP	18	0	3
XTP	18	0	4
TAP	19	0	4
TAP	19	192	4
TAP	20	0	4
TAP	21	0	5
TAP	21	192	5
XTP	22	0	5
TAP	23	0	6
TAP	23	192	6
TAP	24	0	6
TAP	25	0	7
TAP	25	192	7
XTP	26	0	0
XTP	26	0	7
TAP	27	0	7
TAP	27	192	7
TAP	28	0	6
TAP	29	0	5
TAP	29	192	5
TAP	30	0	4
TAP	31	0	3
TAP	31	192	3
TAP	32	0	2
TAP	33	0	1
TAP	33	192	1
TAP	34	0	0
STR	35	0	0
SI_	35	0	0	96	288	3
STR	37	0	7
SI_	37	0	7	96	288	4
STR	39	0	0
SI_	39	0	0	96	288	3
TAP	41	0	4
TAP	41	192	4
BRK	42	0	3
BRK	42	0	4
TAP	43	0	3
TAP	43	192	3
TAP	44	0	2
TAP	44	192	2
TAP	45	0	1
TAP	45	192	1
TAP	46	0	0
TAP	46	0	1
TAP	47	0	7
TAP	47	192	7
TAP	48	0	6
TAP	48	192	6
TAP	49	0	5
TAP	49	192	5
TAP	50	0	4
TAP	50	0	5
TAP	51	0	4
TAP	51	192	5
TAP	52	0	6
TAP	52	192	7
TAP	53	0	0
TAP	53	192	1
TAP	54	0	2
TAP	54	192	3
TAP	55	0	4
TAP	55	192	4
TAP	55	192	5
TAP	56	0	3
TAP	56	192	2
TAP	56	192	3
HLD	57	0	3	384
HLD	57	0	4	384
TTP	59	0	2	B	0	L1
TTP	60	0	1	B	0	L1
TTP	61	0	0	B	0	L1
TTP	62	0	7	B	0	L1
TTP	63	0	6	B	0	L1
TTP	64	0	5	B	0	L1
THO	65	0	0	336	C	1	L1
HLD	67	0	0	384
HLD	69	0	1	384
HLD	71	0	2	384
HLD	73	0	3	384
HLD	73	0	4	384
TAP	75	0	4
TAP	75	96	4
TAP	75	192	4
TAP	76	0	5
TAP	76	96	5
TAP	76	192	5
TAP	77	0	6
TAP	77	96	6
TAP	77	192	6
HLD	78	0	6	192
HLD	78	0	7	192
TAP	79	0	0
TAP	79	96	0
TAP	79	192	0
TAP	80	0	1
TAP	80	96	1
TAP	80	192	1
TAP	81	0	2
TAP	81	96	2
TAP	81	192	2
XTP	82	0	3
XTP	82	0	4
XTP	82	192	3
XTP	82	192	4
TAP	83	0	3
TAP	83	96	3
TAP	83	192	3
TAP	83	192	4
TAP	84	0	2
TAP	84	96	2
TAP	84	192	2
TAP	84	192	3
TAP	85	0	1
TAP	85	96	1
TAP	85	192	0
TAP	85	192	1
TAP	86	0	7
TAP	86	96	7
TAP	86	192	0
TAP	86	192	7
TAP	87	0	6
TAP	87	96	6
TAP	87	192	6
TAP	87	192	7
TAP	88	0	5
TAP	88	96	5
TAP	88	192	4
TAP	88	192	5
STR	89	0	3
SI_	89	0	3	96	288	0
STR	89	0	4
SI_	89	0	4	96	288	7
BRK	91	0	1
BRK	91	0	6

T_REC_TAP	106
T_REC_BRK	5
T_REC_XTP	10
T_REC_HLD	9
T_REC_XHO	0
T_REC_STR	5
T_REC_BST	0
T_REC_XST	0
T_REC_TTP	6
T_REC_THO	1
T_REC_SLD	5
T_REC_ALL	147
T_NUM_TAP	127
T_NUM_BRK	5
T_NUM_HLD	10
T_NUM_SLD	5
T_NUM_ALL	147
T_JUDGE_TAP	132
T_JUDGE_HLD	71
T_JUDGE_SLD	5
T_JUDGE_ALL	208
TTM_EACHPAIRS	20
TTM_SCR_TAP	63500
TTM_SCR_BRK	13000
TTM_SCR_HLD	10000
TTM_SCR_SLD	7500
TTM_SCR_ALL	94000
TTM_SCR_S	90700
TTM_SCR_SS	93500
TTM_RAT_ACV	10053

