VERSION	0.00.00	1.03.00
FES_MODE	0
BPM_DEF	190.000	190.000	190.000	190.000
MET_DEF	4	4
RESOLUTION	384
CLK_DEF	381
COMPATIBLE_CODE	MA2

BPM	0	0	190.000
MET	0	0	4	4

XST	2	0	1
SXR	2	0	1	96	120	1
XST	2	0	5
SXR	2	0	5	96	120	5
BRK	2	288	3
BRK	2	288	7
TAP	3	0	2
TAP	3	48	2
TAP	3	96	3
TAP	3	144	2
TAP	3	192	1
TAP	3	192	4
TAP	3	288	3
TAP	3	336	3
TAP	4	0	5
TAP	4	48	5
TAP	4	96	4
TAP	4	144	5
TAP	4	192	3
TAP	4	192	6
TAP	4	288	4
TAP	4	336	4
TAP	5	0	2
TAP	5	48	2
TAP	5	96	3
TAP	5	144	2
TAP	5	192	1
TAP	5	192	4
TAP	5	288	3
TAP	5	336	3
TAP	6	0	5
TAP	6	48	5
TAP	6	96	4
TAP	6	144	5
STR	6	192	3
SI_	6	192	3	96	48	1
STR	6	192	6
SI_	6	192	6	96	48	0
XTP	6	288	3
XTP	6	288	6
XTP	7	0	1
TAP	7	48	1
TAP	7	96	0
TAP	7	144	1
TAP	7	192	2
TAP	7	192	7
TAP	7	288	0
TAP	7	336	0
TAP	8	0	6
TAP	8	48	6
TAP	8	96	7
TAP	8	144	6
TAP	8	192	0
TAP	8	192	5
TAP	8	288	7
TAP	8	336	7
TAP	9	0	1
TAP	9	48	1
TAP	9	96	0
TAP	9	144	2
TAP	9	192	6
TAP	9	240	6
TAP	9	288	7
TAP	9	336	5
TAP	10	0	3
TAP	10	24	4
TAP	10	48	3
TAP	10	72	4
TAP	10	96	2
TAP	10	120	5
TAP	10	144	2
TAP	10	168	5
STR	10	192	0
SSL	10	192	0	96	96	4
TAP	11	0	5
TAP	11	48	5
TAP	11	96	3
TAP	11	144	4
TAP	11	192	2
TAP	11	192	6
TAP	11	288	5
TAP	11	336	5
TAP	12	0	3
TAP	12	48	3
TAP	12	96	4
TAP	12	144	3
TAP	12	192	1
TAP	12	192	5
TAP	12	288	2
TAP	12	336	2
BRK	13	0	4
BRK	13	24	3
BRK	13	48	4
BRK	13	72	3
BRK	13	96	4
TAP	13	144	2
TAP	13	144	6
TAP	13	192	2
TAP	13	192	6
TAP	13	288	5
TAP	13	336	5
TAP	14	0	3
TAP	14	48	3
TAP	14	96	5
TAP	14	144	1
STR	14	192	0
SI_	14	192	0	96	48	3
STR	14	192	4
SI_	14	192	4	96	48	7
XTP	14	288	0
XTP	14	288	4
XTP	15	0	7
XTP	15	48	7
TAP	15	96	6
TAP	15	144	6
TAP	15	192	5
TAP	15	240	5
TAP	15	288	4
TAP	15	336	4
TAP	16	0	3
TAP	16	48	3
TAP	16	96	2
TAP	16	144	2
TAP	16	192	1
TAP	16	240	1
TAP	16	288	0
TAP	16	336	0
TAP	17	0	6
TAP	17	0	7
TAP	17	48	6
TAP	17	48	7
TAP	17	96	0
TAP	17	96	5
TAP	17	144	0
TAP	17	144	5
TAP	17	192	1
TAP	17	192	4
TAP	17	240	1
TAP	17	240	4
TAP	17	288	2
TAP	17	288	3
TAP	17	336	2
TAP	17	336	3
TAP	18	0	4
TAP	18	24	5
TAP	18	48	6
TAP	18	72	7
TAP	18	96	0
TAP	18	120	1
TAP	18	144	2
TAP	18	168	3
TAP	18	192	4
TAP	18	216	5
TAP	18	240	6
TAP	18	264	7
TAP	18	288	0
TAP	18	312	1
TAP	18	336	2
TAP	18	360	3
TTP	19	0	0	C	1	M1
TTP	21	0	3	B	0	M1
TTP	21	0	4	B	0	M1
TTP	22	0	2	E	0	M1
TTP	22	0	6	E	0	M1
XST	23	0	0
SSL	23	0	0	96	144	4
SSL	23	0	0	96	144	4
XTP	23	0	7
XST	24	0	3
SSR	24	0	3	96	144	7
XST	24	0	4
SI_	24	0	4	96	144	7
XTP	25	0	6
XTP	25	0	7
XTP	25	48	0
XTP	25	48	5
XTP	25	192	0
XTP	25	192	1
XTP	25	240	2
XTP	25	240	7
XTP	26	48	2
XTP	26	48	3
XTP	26	96	1
XTP	26	96	4
XTP	26	192	3
XTP	26	192	6
XTP	26	264	2
XTP	26	264	7
XTP	26	336	0
XTP	26	336	1
HLD	27	0	1	384
TAP	27	96	0
TTP	27	192	1	E	0	M1
TTP	27	264	2	E	0	M1
TTP	27	336	3	E	0	M1
HLD	28	0	5	384
TAP	28	96	4
TTP	28	192	5	E	0	M1
TTP	28	264	6	E	0	M1
TTP	28	336	7	E	0	M1
HLD	29	0	1	384
TAP	29	96	0
TTP	29	192	1	E	0	M1
TTP	29	264	2	E	0	M1
TTP	29	336	3	E	0	M1
TAP	30	0	5
HLD	30	48	5	336
TAP	30	96	4
TTP	30	192	5	E	0	M1
TTP	30	264	6	E	0	M1
TTP	30	336	7	E	0	M1
TAP	31	0	0
TAP	31	48	0
TAP	31	96	0
TAP	31	96	4
TAP	31	144	0
TAP	31	192	0
TAP	31	192	5
TAP	31	240	0
TAP	31	288	0
TAP	31	288	6
TAP	31	336	0
TAP	32	0	0
TAP	32	0	7
TAP	32	48	7
TAP	32	96	3
TAP	32	96	7
TAP	32	144	7
TAP	32	192	2
TAP	32	192	7
TAP	32	240	7
TAP	32	288	1
TAP	32	288	7
TAP	32	336	7
TAP	33	0	0
TAP	33	24	7
TAP	33	48	0
TAP	33	72	7
TAP	33	96	1
TAP	33	120	6
TAP	33	144	1
TAP	33	168	6
TAP	33	192	2
TAP	33	216	5
TAP	33	240	2
TAP	33	264	5
TAP	33	288	3
TAP	33	312	4
TAP	33	336	3
TAP	33	360	4
TAP	34	0	2
TAP	34	32	2
TAP	34	64	2
TAP	34	96	6
TAP	34	128	6
TAP	34	160	6
STR	34	192	0
SF_	34	192	0	96	48	4
BRK	34	288	0
TTP	35	0	1	B	0	M1
TTP	35	0	2	B	0	M1
TTP	35	0	2	E	0	M1
TTP	35	0	5	B	0	M1
TTP	35	0	6	B	0	M1
TTP	35	0	6	E	0	M1
TTP	36	0	4	B	0	M1
TTP	36	0	5	B	0	M1
TTP	36	0	6	B	0	M1
TTP	36	0	6	E	0	M1
TTP	36	0	7	B	0	M1
TTP	36	192	0	B	0	M1
TTP	36	192	1	B	0	M1
TTP	36	192	2	B	0	M1
TTP	36	192	3	B	0	M1
TTP	37	0	3	E	0	M1
TTP	37	0	4	E	0	M1
TTP	37	0	5	E	0	M1
TTP	37	192	2	E	0	M1
TTP	37	192	6	E	0	M1
THO	38	0	0	192	C	1	M1
BRK	38	192	7
XST	39	0	0
SCR	39	0	0	96	144	5
TTP	39	192	1	B	0	M1
TTP	39	192	2	B	0	M1
XST	40	0	7
SCL	40	0	7	96	144	2
XTP	40	96	7
TTP	40	192	5	B	0	M1
TTP	40	192	6	B	0	M1
XST	41	0	0
SCR	41	0	0	96	144	5
TTP	41	192	1	B	0	M1
TTP	41	192	2	B	0	M1
XST	42	0	7
SCL	42	0	7	96	144	2
TAP	42	144	1
TAP	42	192	1
TAP	42	288	0
TAP	43	0	5
BST	43	0	7
SCR	43	0	7	96	192	5
TAP	43	96	7
TAP	43	192	6
BST	44	0	0
SCL	44	0	0	96	192	2
TAP	44	0	2
TAP	44	144	1
TAP	44	192	1
TAP	44	288	0
BST	45	0	7
SI_	45	0	7	96	96	3
STR	45	96	3
SCL	45	96	3	96	96	0
STR	45	192	0
SI_	45	192	0	96	96	4
STR	45	288	4
SCR	45	288	4	96	96	7
TAP	46	0	7
TAP	46	96	0
TAP	46	192	3
TAP	46	192	4
XTP	46	240	1
XTP	46	240	6
TAP	47	0	0
BRK	47	0	1
TAP	47	48	2
TAP	47	96	3
TAP	47	96	4
TAP	47	144	5
TAP	47	168	4
TAP	47	192	5
TAP	47	240	6
TAP	47	288	0
TAP	47	288	7
TAP	47	336	1
TAP	48	0	2
BRK	48	0	3
TAP	48	48	1
TAP	48	96	0
TAP	48	96	7
TAP	48	144	6
TAP	48	168	7
TAP	48	192	6
TAP	48	240	0
TAP	48	240	5
TAP	48	288	1
TAP	48	288	4
TAP	48	336	2
TAP	48	336	3
STR	49	0	4
SI_	49	0	4	96	48	0
TAP	49	48	0
TAP	49	96	1
TAP	49	144	2
STR	49	192	3
SI_	49	192	3	96	48	7
TAP	49	240	7
TAP	49	288	6
TAP	49	336	5
TAP	50	0	4
TAP	50	48	1
TAP	50	48	5
TAP	50	96	1
TAP	50	96	5
HLD	50	192	2	72
TAP	50	264	3
TAP	50	288	2
TAP	50	336	1
TAP	51	0	4
BRK	51	0	5
TAP	51	48	6
TAP	51	96	0
TAP	51	96	7
TAP	51	144	1
TAP	51	168	0
TAP	51	192	1
TAP	51	240	2
TAP	51	288	3
TAP	51	288	4
TAP	51	336	5
TAP	52	0	6
BRK	52	0	7
TAP	52	48	5
TAP	52	96	3
TAP	52	96	4
TAP	52	144	2
TAP	52	168	3
TAP	52	192	2
TAP	52	240	1
TAP	52	240	4
TAP	52	288	0
TAP	52	288	5
TAP	52	336	6
TAP	52	336	7
STR	53	0	0
SI_	53	0	0	96	48	4
TAP	53	48	4
TAP	53	96	5
TAP	53	144	6
STR	53	192	7
SI_	53	192	7	96	48	3
TAP	53	240	3
TAP	53	288	2
TAP	53	336	1
TAP	54	0	0
TAP	54	48	2
TAP	54	48	6
TAP	54	96	2
TAP	54	96	6
XHO	54	192	1	48
XHO	54	192	4	48
XHO	54	264	1	48
XHO	54	264	4	48
XTP	54	336	1
XTP	54	336	4
TAP	55	0	6
TAP	55	24	5
TAP	55	48	4
TAP	55	72	3
TAP	55	96	0
TAP	55	120	1
TAP	55	144	2
TAP	55	168	3
TAP	55	192	6
TAP	55	216	5
TAP	55	240	4
TAP	55	264	3
TAP	55	288	2
TAP	55	312	1
TAP	55	336	0
TAP	55	360	7
TAP	56	0	1
TAP	56	24	2
TAP	56	48	3
TAP	56	72	4
TAP	56	96	7
TAP	56	120	6
TAP	56	144	5
TAP	56	168	4
TAP	56	192	1
TAP	56	216	2
TAP	56	240	3
TAP	56	264	4
TAP	56	288	5
TAP	56	312	6
TAP	56	336	7
TAP	56	360	0
TAP	57	0	6
TAP	57	24	5
TAP	57	48	4
TAP	57	72	3
TAP	57	96	0
TAP	57	120	1
TAP	57	144	2
TAP	57	168	3
TAP	57	192	6
TAP	57	216	5
TAP	57	240	4
TAP	57	264	3
TAP	57	288	2
TAP	57	312	1
TAP	57	336	0
TAP	57	360	7
TAP	58	0	1
TAP	58	24	2
TAP	58	48	3
TAP	58	72	4
TAP	58	96	7
TAP	58	120	6
TAP	58	144	5
TAP	58	168	4
TAP	58	192	7
TAP	58	216	0
TAP	58	240	1
TAP	58	264	2
BRK	58	288	3
BRK	58	288	7
XTP	59	0	6
TAP	59	24	4
TAP	59	48	5
TAP	59	72	4
XTP	59	144	1
TAP	59	168	3
TAP	59	192	2
TAP	59	216	3
XTP	59	288	6
TAP	59	312	4
TAP	59	336	5
TAP	59	360	3
TAP	60	0	6
TAP	60	24	4
TAP	60	48	6
TAP	60	72	4
TAP	60	96	5
TAP	60	120	3
TAP	60	144	5
TAP	60	168	3
TAP	60	192	4
TAP	60	216	2
TAP	60	240	4
TAP	60	264	2
TAP	60	288	5
TAP	60	312	3
TAP	60	336	5
TAP	60	360	3
TAP	61	0	7
TAP	61	24	6
TAP	61	48	5
TAP	61	72	4
TAP	61	96	3
TAP	61	120	2
TAP	61	144	1
TAP	61	168	0
TAP	61	192	3
TAP	61	216	4
TAP	61	240	5
TAP	61	264	6
TAP	61	288	7
TAP	61	312	0
TAP	61	336	1
TAP	61	360	2
XTP	62	0	3
XTP	62	0	7
TAP	62	24	6
TAP	62	48	5
TAP	62	72	4
TAP	62	96	0
TAP	62	96	3
TAP	62	120	1
TAP	62	144	2
TAP	62	168	3
TAP	62	192	4
STR	62	192	7
SF_	62	192	7	96	48	3
BRK	62	288	7
XTP	63	0	2
XTP	63	0	4
TAP	63	96	0
TAP	63	96	7
HLD	63	192	1	48
HLD	63	192	3	48
HLD	63	264	2	48
HLD	63	264	4	48
TAP	63	336	3
TAP	63	336	5
TAP	64	48	0
TAP	64	48	4
TAP	64	96	2
TAP	64	96	6
HLD	64	192	4	48
HLD	64	192	6	48
HLD	64	264	3	48
HLD	64	264	5	48
TAP	64	336	2
TAP	64	336	4
TAP	65	0	1
TAP	65	0	3
TAP	65	96	0
TAP	65	96	7
HLD	65	192	1	48
HLD	65	192	3	48
HLD	65	264	2	48
HLD	65	264	4	48
TAP	65	336	3
TAP	65	336	5
TAP	66	48	0
TAP	66	48	7
TAP	66	72	1
TAP	66	72	6
TAP	66	96	2
STR	66	96	5
SLR	66	96	5	96	96	3
TAP	66	192	3
TAP	66	240	1
TAP	66	336	0
TAP	66	336	4
BST	67	0	2
SI_	67	0	2	96	48	7
TAP	67	0	6
BST	67	96	6
SI_	67	96	6	96	48	3
BST	67	192	0
SI_	67	192	0	96	48	4
BRK	67	264	5
BRK	67	336	7
BRK	68	48	1
BRK	68	48	5
TAP	68	72	2
TAP	68	72	6
TAP	68	96	3
STR	68	96	7
SI_	68	96	7	96	48	3
STR	68	192	2
SI_	68	192	2	96	48	7
TAP	68	264	4
TAP	68	336	6
TAP	69	0	0
TAP	69	0	4
TAP	69	96	2
TAP	69	96	7
TAP	69	192	1
TAP	69	192	4
TAP	69	264	3
TAP	69	264	5
TAP	69	336	4
TAP	69	336	6
XTP	70	0	5
TAP	70	32	5
TAP	70	64	5
TAP	70	96	4
TAP	70	128	4
TAP	70	160	4
TAP	70	192	3
TAP	70	224	3
TAP	70	256	3
XTP	70	288	0
XTP	71	0	2
TAP	71	32	4
TAP	71	64	3
TAP	71	96	5
TAP	71	128	3
TAP	71	160	4
TAP	71	192	2
TAP	71	224	4
TAP	71	256	3
TTP	71	288	6	B	0	M1
TTP	71	288	6	E	0	M1
XTP	72	0	5
TAP	72	32	3
TAP	72	64	4
TAP	72	96	2
TAP	72	128	4
TAP	72	160	3
TAP	72	192	5
TAP	72	224	3
TAP	72	256	4
TTP	72	288	1	B	0	M1
TTP	72	288	2	E	0	M1
XTP	73	0	0
TAP	73	32	3
TAP	73	64	2
TAP	73	96	6
TAP	73	128	4
TAP	73	160	5
TAP	73	192	1
TAP	73	224	3
TAP	73	256	2
TTP	73	288	6	B	0	M1
TTP	73	288	6	E	0	M1
XTP	74	0	7
TAP	74	32	4
TAP	74	64	5
TAP	74	96	1
TAP	74	128	3
TAP	74	160	2
TAP	74	192	6
TAP	74	224	4
TAP	74	256	5
TTP	74	288	1	B	0	M1
TTP	74	288	2	E	0	M1
XTP	75	0	0
TAP	75	32	0
TAP	75	64	0
XTP	75	96	1
TAP	75	128	1
TAP	75	160	1
XTP	75	192	2
TAP	75	224	2
TAP	75	256	2
XTP	75	288	3
TAP	75	320	3
TAP	75	352	3
XTP	76	0	4
TAP	76	32	4
TAP	76	64	4
XTP	76	96	5
TAP	76	128	5
TAP	76	160	5
XTP	76	192	6
TAP	76	224	6
TAP	76	256	6
XTP	76	288	7
TAP	76	320	7
TAP	76	352	7
BRK	77	0	0
TAP	77	32	6
TAP	77	64	1
BRK	77	96	5
TAP	77	128	2
TAP	77	160	4
BRK	77	192	3
TAP	77	224	5
TAP	77	256	2
BRK	77	288	6
TAP	77	320	1
TAP	77	352	7
BRK	78	0	2
TAP	78	12	3
TAP	78	24	4
TAP	78	36	5
TAP	78	48	6
TAP	78	60	7
TAP	78	72	0
TAP	78	84	1
BRK	78	96	2
TAP	78	108	3
TAP	78	120	4
TAP	78	132	5
TAP	78	144	6
TAP	78	156	7
TAP	78	168	0
TAP	78	180	1
BRK	78	192	2
TAP	78	204	3
TAP	78	216	4
TAP	78	228	5
TAP	78	240	6
TAP	78	252	7
TAP	78	264	0
TAP	78	276	1
TTP	78	288	0	C	1	M1
XTP	78	288	2
XTP	79	0	0
XTP	79	0	1
XHO	79	48	0	96
XHO	79	48	1	96
XTP	79	192	3
XTP	79	192	6
XHO	79	240	3	96
XHO	79	240	6	96
XTP	80	0	1
XTP	80	0	4
XHO	80	48	1	96
XHO	80	48	4	96
STR	80	192	3
SF_	80	192	3	96	48	7
BRK	80	288	3
XST	81	0	0
SCR	81	0	0	96	96	4
STR	81	96	4
SCR	81	96	4	96	96	0
STR	81	192	0
SSL	81	192	0	96	120	4
TAP	81	288	4
TAP	82	0	5
TAP	82	48	6
XTP	82	96	3
XTP	82	96	7
HLD	82	192	6	72
TAP	82	264	4
TAP	82	288	6
TAP	82	336	2
TAP	83	0	0
TAP	83	0	1
TAP	83	48	2
TAP	83	96	3
TAP	83	96	4
TAP	83	144	5
TAP	83	192	6
TAP	83	192	7
TAP	83	240	5
TAP	83	288	3
TAP	83	288	4
TAP	83	336	2
TAP	84	0	0
TAP	84	0	1
TAP	84	48	2
TAP	84	96	3
TAP	84	96	4
TAP	84	144	5
TAP	84	168	4
TAP	84	192	5
TAP	84	240	3
TAP	84	240	6
TAP	84	288	2
TAP	84	288	7
TAP	84	336	0
TAP	84	336	1
STR	85	0	7
SCL	85	0	7	96	96	3
STR	85	96	3
SCL	85	96	3	96	96	7
STR	85	192	7
SSR	85	192	7	96	120	3
TAP	85	288	3
TAP	86	0	2
TAP	86	48	1
XTP	86	96	0
XTP	86	96	5
TAP	86	192	3
TAP	86	192	4
XTP	86	240	1
XTP	86	240	6
BRK	87	0	0
BRK	87	0	7
TAP	87	48	5
TAP	87	72	4
TAP	87	96	6
TAP	87	144	2
TAP	87	168	3
TAP	87	192	0
TAP	87	240	1
TAP	87	240	7
TAP	87	288	2
TAP	87	288	6
TAP	87	336	3
TAP	87	336	5
TAP	88	0	4
TAP	88	48	2
TAP	88	72	3
TAP	88	96	1
TAP	88	144	5
TAP	88	168	4
TAP	88	192	7
TAP	88	240	0
TAP	88	240	6
TAP	88	288	1
TAP	88	288	5
TAP	88	336	2
TAP	88	336	4
XTP	89	0	3
XTP	89	24	3
XTP	89	48	3
XTP	89	72	3
XTP	89	96	3
TAP	89	144	2
TAP	89	144	4
TAP	89	192	1
STR	89	192	5
SI_	89	192	5	96	48	0
TAP	89	240	5
STR	89	288	2
SI_	89	288	2	96	48	7
TAP	89	336	2
TAP	90	0	6
TAP	90	48	6
TAP	90	96	0
TAP	90	96	5
TAP	90	144	6
TAP	90	168	7
TAP	90	192	6
BRK	90	240	0
BRK	90	240	5
TAP	90	336	3
TAP	90	336	6
TAP	91	0	3
TAP	91	0	6
TAP	91	48	1
TAP	91	72	0
TAP	91	96	2
TAP	91	144	6
TAP	91	168	7
TAP	91	192	4
TAP	91	240	3
TAP	91	240	5
TAP	91	288	2
TAP	91	288	6
TAP	91	336	1
TAP	91	336	7
TAP	92	0	0
TAP	92	48	6
TAP	92	72	7
TAP	92	96	5
TAP	92	144	1
TAP	92	168	0
TAP	92	192	3
TAP	92	240	2
TAP	92	240	4
TAP	92	288	1
TAP	92	288	5
HLD	92	336	0	48
TAP	92	336	6
XTP	93	0	7
TAP	93	24	6
TAP	93	48	5
TAP	93	72	4
TAP	93	96	3
TAP	93	120	2
TAP	93	144	1
TAP	93	168	0
TAP	93	192	3
TAP	93	192	7
TAP	93	216	4
TAP	93	240	5
TAP	93	264	6
TAP	93	288	7
TAP	93	312	0
TAP	93	336	1
TAP	93	360	2
TAP	94	0	3
TAP	94	0	7
TAP	94	24	6
TAP	94	48	5
TAP	94	72	4
TAP	94	96	0
TAP	94	96	3
TAP	94	120	1
TAP	94	144	2
TAP	94	168	3
TAP	94	192	4
TAP	94	192	6
TAP	94	264	1
TAP	94	264	3
TAP	94	336	0
TAP	94	336	7
BRK	95	0	1
BRK	95	0	6

T_REC_TAP	638
T_REC_BRK	34
T_REC_XTP	71
T_REC_HLD	19
T_REC_XHO	10
T_REC_STR	25
T_REC_BST	6
T_REC_XST	10
T_REC_TTP	52
T_REC_THO	1
T_REC_SLD	42
T_REC_ALL	908
T_NUM_TAP	796
T_NUM_BRK	40
T_NUM_HLD	30
T_NUM_SLD	42
T_NUM_ALL	908
T_JUDGE_TAP	836
T_JUDGE_HLD	68
T_JUDGE_SLD	42
T_JUDGE_ALL	946
TTM_EACHPAIRS	145
TTM_SCR_TAP	398000
TTM_SCR_BRK	104000
TTM_SCR_HLD	30000
TTM_SCR_SLD	63000
TTM_SCR_ALL	595000
TTM_SCR_S	573300
TTM_SCR_SS	591000
TTM_RAT_ACV	10067

