VERSION	0.00.00	1.03.00
FES_MODE	0
BPM_DEF	190.000	190.000	190.000	190.000
MET_DEF	4	4
RESOLUTION	384
CLK_DEF	384
COMPATIBLE_CODE	MA2

BPM	0	0	190.000
MET	0	0	4	4

XHO	2	0	0	288
BRK	2	288	7
TAP	3	0	6
TAP	3	96	5
TAP	3	192	3
TAP	3	288	2
TAP	3	288	4
TAP	4	0	1
TAP	4	96	2
TAP	4	192	4
TAP	4	288	3
TAP	4	288	5
XTP	5	0	6
TAP	5	96	5
TAP	5	192	3
TAP	5	288	2
TAP	5	288	4
TAP	6	0	1
TAP	6	96	2
TAP	6	96	3
TAP	6	192	2
TAP	6	192	3
XTP	6	288	3
XTP	6	288	4
TAP	7	0	5
TAP	7	96	4
TAP	7	96	5
TAP	7	192	3
TAP	7	288	3
TAP	7	288	4
TAP	8	0	5
TAP	8	96	4
TAP	8	96	6
TAP	8	192	3
TAP	8	288	2
TAP	8	288	4
TAP	9	0	1
TAP	9	48	1
TAP	9	96	3
TAP	9	192	5
TAP	9	240	5
TAP	9	288	4
TAP	10	0	3
TAP	10	48	3
TAP	10	96	4
BRK	10	192	2
BRK	10	192	5
HLD	11	0	2	192
TAP	11	96	3
TAP	11	192	3
TAP	11	288	1
TAP	11	288	4
HLD	12	0	5	192
TAP	12	96	4
TAP	12	192	4
TAP	12	288	3
TAP	12	288	6
XTP	13	0	4
XTP	13	24	3
XTP	13	48	4
XTP	13	72	3
XTP	13	96	4
TAP	13	192	3
TAP	13	192	5
TAP	13	288	2
TAP	13	288	4
HLD	14	0	1	192
TAP	14	96	0
TAP	14	192	0
TAP	14	288	2
TAP	14	288	7
HLD	15	0	6	192
TAP	15	96	7
TAP	15	192	5
TAP	15	288	4
TAP	15	288	5
HLD	16	0	2	192
TAP	16	96	3
TAP	16	192	1
TAP	16	288	0
TAP	16	288	1
TAP	17	0	2
TAP	17	48	2
TAP	17	96	4
TAP	17	144	4
TAP	17	192	3
TAP	17	240	3
TAP	17	288	5
TAP	17	336	5
THO	18	0	0	384	C	1	M1
BST	19	0	7
SCL	19	0	7	96	1056	0
HLD	23	0	2	192
XTP	23	0	4
TAP	23	192	3
XTP	24	0	3
HLD	24	0	5	192
TAP	24	192	4
XTP	25	0	2
XTP	25	0	3
XTP	25	48	2
XTP	25	48	3
XTP	25	192	4
XTP	25	192	5
XTP	25	240	4
XTP	25	240	5
TAP	26	0	3
TAP	26	48	3
TAP	26	96	4
BRK	26	192	2
BRK	26	192	5
STR	27	0	1
SCR	27	0	1	96	192	4
TAP	27	192	5
STR	28	0	6
SCL	28	0	6	96	192	3
TAP	28	192	2
STR	29	0	1
SUR	29	0	1	96	192	5
TAP	29	192	6
TAP	30	0	7
TAP	30	96	7
TAP	30	192	6
TAP	30	288	5
BRK	31	0	3
BRK	31	0	4
TAP	31	96	2
TAP	31	144	2
TAP	31	192	3
TAP	31	288	1
TAP	31	288	4
TAP	32	0	2
TAP	32	0	5
TAP	32	96	6
TAP	32	144	6
TAP	32	192	7
TAP	32	288	0
TAP	32	288	5
TAP	33	0	1
TAP	33	48	1
TAP	33	96	7
TAP	33	144	7
TAP	33	192	0
TAP	33	240	0
TAP	33	288	6
TAP	33	336	6
STR	34	0	7
SI_	34	0	7	96	96	2
SI_	34	0	7	96	96	4
XTP	34	288	3
TAP	35	0	4
XHO	35	0	5	192
TAP	36	0	3
XHO	36	0	4	96
TAP	36	192	2
XHO	36	192	3	96
TAP	37	0	1
XHO	37	0	2	96
TAP	37	192	0
XHO	37	192	1	96
XHO	38	0	0	192
TAP	38	0	7
TTP	38	192	0	C	1	M1
STR	39	0	7
SCL	39	0	7	96	288	4
TAP	39	192	1
STR	40	0	0
SCR	40	0	0	96	288	3
TAP	40	192	4
STR	41	0	4
SCR	41	0	4	96	288	7
TAP	41	192	3
THO	42	0	0	192	C	0	M1
TAP	42	192	7
HLD	43	0	6	144
TAP	43	144	4
HLD	43	192	4	144
TAP	43	336	3
HLD	44	0	3	144
TAP	44	144	2
TAP	44	192	2
TAP	44	288	2
TAP	44	288	3
HLD	45	0	1	96
HLD	45	0	3	96
HLD	45	192	4	96
HLD	45	192	6	96
TAP	46	0	0
TAP	46	48	0
TAP	46	96	7
TAP	46	192	1
TAP	46	192	6
BRK	46	240	1
BRK	46	240	6
TAP	46	336	3
TAP	46	336	5
XTP	47	0	3
XTP	47	0	5
STR	47	96	2
SI_	47	96	2	96	48	4
STR	47	192	5
SI_	47	192	5	96	48	1
XTP	47	288	0
TAP	48	0	2
TAP	48	0	7
STR	48	96	5
SI_	48	96	5	96	48	3
STR	48	192	2
SI_	48	192	2	96	48	6
XTP	48	288	7
TAP	49	0	0
TAP	49	0	7
STR	49	96	2
SI_	49	96	2	96	48	4
STR	49	192	5
SI_	49	192	5	96	48	1
XTP	49	288	0
XTP	50	0	7
XTP	50	48	7
XST	50	96	0
SI_	50	96	0	96	48	4
XST	50	96	6
SI_	50	96	6	96	48	3
BRK	50	288	2
BRK	50	288	5
XTP	51	0	4
XTP	51	0	6
STR	51	96	1
SI_	51	96	1	96	48	5
STR	51	192	6
SI_	51	192	6	96	48	0
XTP	51	288	4
XTP	52	0	1
XTP	52	0	3
STR	52	96	6
SI_	52	96	6	96	48	2
STR	52	192	1
SI_	52	192	1	96	48	7
XTP	52	288	3
HLD	53	0	6	96
HLD	53	96	4	96
HLD	53	192	3	96
HLD	53	288	1	96
STR	54	0	0
SF_	54	0	0	96	96	4
BRK	54	288	2
BRK	54	288	6
TTP	55	0	0	C	1	M1
HLD	57	0	0	384
HLD	58	0	7	384
STR	59	0	0
SCR	59	0	0	96	288	5
STR	60	0	7
SCL	60	0	7	96	288	2
STR	61	0	0
SCR	61	0	0	96	288	5
XHO	62	0	7	192
TAP	62	192	0
TAP	62	288	1
TAP	62	288	6
XHO	63	0	2	96
XTP	63	96	3
TAP	63	192	2
TAP	63	192	3
TAP	63	264	3
TAP	63	264	4
TAP	63	336	4
TAP	63	336	5
TAP	64	48	6
TAP	64	96	6
TAP	64	96	7
TAP	64	192	4
TAP	64	192	5
TAP	64	264	3
TAP	64	264	4
TAP	64	336	2
TAP	64	336	3
XHO	65	0	1	96
XTP	65	96	0
TAP	65	192	0
TAP	65	192	1
TAP	65	264	0
TAP	65	264	7
TAP	65	336	6
TAP	65	336	7
TAP	66	48	5
TAP	66	96	4
TAP	66	96	5
TAP	66	192	6
TAP	66	192	7
TAP	66	264	0
TAP	66	264	7
TAP	66	336	0
TAP	66	336	1
XHO	67	0	2	96
XTP	67	96	3
TAP	67	192	1
TAP	67	192	4
TAP	67	264	2
TAP	67	264	5
TAP	67	336	3
TAP	67	336	6
TAP	68	48	7
TAP	68	96	0
TAP	68	96	7
TAP	68	192	3
TAP	68	192	6
TAP	68	264	2
TAP	68	264	5
TAP	68	336	1
TAP	68	336	4
XHO	69	0	1	96
XHO	69	0	4	96
XHO	69	192	3	96
XHO	69	192	6	96
TAP	70	0	4
TAP	70	0	5
TAP	70	96	2
TAP	70	96	3
TAP	70	192	4
TAP	70	224	3
TAP	70	256	4
BRK	70	288	3
TTP	71	0	5	E	0	M1
TTP	71	96	5	B	0	M1
TTP	71	192	6	B	0	M1
TTP	71	288	0	C	0	M1
TTP	71	288	7	E	0	M1
TTP	72	0	2	E	0	M1
TTP	72	96	2	B	0	M1
TTP	72	192	3	B	0	M1
TTP	72	288	0	C	0	M1
TTP	72	288	4	E	0	M1
TTP	73	0	6	E	0	M1
TTP	73	96	6	B	0	M1
TTP	73	192	7	B	0	M1
TTP	73	288	0	C	0	M1
TTP	73	288	0	E	0	M1
TTP	74	0	3	E	0	M1
TTP	74	96	4	E	0	M1
TTP	74	192	5	E	0	M1
XTP	74	288	1
XTP	74	288	6
TAP	75	0	4
XHO	75	0	5	96
TAP	75	96	4
TAP	75	192	3
XHO	75	192	4	96
TAP	75	288	3
TAP	76	0	2
XHO	76	0	3	96
TAP	76	96	2
TAP	76	192	1
XHO	76	192	2	96
TAP	76	288	1
TAP	77	0	0
XHO	77	0	1	96
TAP	77	96	0
XHO	77	192	0	96
TAP	77	192	7
TAP	77	288	7
BRK	78	0	1
BRK	78	0	6
XTP	78	288	3
XTP	78	288	4
XHO	79	0	4	144
XHO	79	0	5	144
XHO	79	192	2	144
XHO	79	192	3	144
XHO	80	0	3	144
XHO	80	0	4	144
TAP	80	192	3
TAP	80	192	4
BRK	80	288	1
BRK	80	288	6
TAP	81	0	2
TAP	81	0	3
TAP	81	96	0
TAP	81	96	6
TAP	81	192	4
TAP	81	192	5
TAP	81	288	1
TAP	81	288	7
TAP	82	0	2
TAP	82	0	3
TAP	82	96	4
TAP	82	96	5
TAP	82	192	6
TAP	82	192	7
TAP	82	288	0
TAP	82	288	5
TAP	83	0	1
HLD	83	0	6	96
TAP	83	96	4
TAP	83	144	4
TAP	83	192	5
TAP	83	288	2
TAP	83	288	7
HLD	84	0	1	96
TAP	84	0	6
TAP	84	96	3
TAP	84	144	3
TAP	84	192	2
TAP	84	288	0
TAP	84	288	5
STR	85	0	7
SCL	85	0	7	96	96	4
STR	85	192	3
SCL	85	192	3	96	96	0
HLD	86	0	6	96
TAP	86	96	7
TAP	86	192	0
TAP	86	192	5
BRK	86	240	0
BRK	86	240	5
TAP	86	336	2
TAP	86	336	4
XTP	87	0	2
XTP	87	0	4
STR	87	96	5
SI_	87	96	5	96	48	1
TAP	87	144	5
STR	87	192	2
SI_	87	192	2	96	48	4
TAP	87	288	7
XTP	88	0	3
XTP	88	0	6
STR	88	96	2
SI_	88	96	2	96	48	6
TAP	88	144	2
STR	88	192	5
SI_	88	192	5	96	48	3
XTP	88	288	1
XTP	89	0	1
XTP	89	0	4
STR	89	96	5
SI_	89	96	5	96	48	1
TAP	89	144	5
STR	89	192	2
SI_	89	192	2	96	48	4
XTP	89	288	7
XTP	90	0	6
XTP	90	0	7
XTP	90	48	0
XTP	90	48	5
XST	90	96	1
SI_	90	96	1	96	48	4
XST	90	96	4
SI_	90	96	4	96	48	0
BRK	90	288	2
BRK	90	288	6
XTP	91	0	4
XTP	91	0	5
STR	91	96	1
SI_	91	96	1	96	48	5
TAP	91	144	1
STR	91	192	6
SI_	91	192	6	96	48	0
XTP	91	288	4
XTP	92	0	1
XTP	92	0	3
STR	92	96	6
SI_	92	96	6	96	48	2
TAP	92	144	6
STR	92	192	1
SI_	92	192	1	96	48	7
XTP	92	288	3
TAP	93	0	6
TAP	93	48	6
TAP	93	96	4
TAP	93	144	4
TAP	93	192	3
TAP	93	240	3
TAP	93	288	1
TAP	93	336	1
TAP	94	0	0
TAP	94	0	7
TAP	94	48	0
TAP	94	48	7
TAP	94	96	0
TAP	94	96	7
TAP	94	144	0
TAP	94	144	7
XTP	94	192	1
XTP	94	192	6
XTP	94	264	4
XTP	94	264	5
XTP	94	336	2
XTP	94	336	3
TTP	95	0	0	C	1	M1
TTP	95	0	1	B	0	M1
TTP	95	0	5	B	0	M1

T_REC_TAP	255
T_REC_BRK	22
T_REC_XTP	63
T_REC_HLD	23
T_REC_XHO	27
T_REC_STR	33
T_REC_BST	1
T_REC_XST	4
T_REC_TTP	23
T_REC_THO	2
T_REC_SLD	39
T_REC_ALL	492
T_NUM_TAP	378
T_NUM_BRK	23
T_NUM_HLD	52
T_NUM_SLD	39
T_NUM_ALL	492
T_JUDGE_TAP	401
T_JUDGE_HLD	157
T_JUDGE_SLD	39
T_JUDGE_ALL	597
TTM_EACHPAIRS	120
TTM_SCR_TAP	189000
TTM_SCR_BRK	59800
TTM_SCR_HLD	52000
TTM_SCR_SLD	58500
TTM_SCR_ALL	359300
TTM_SCR_S	346300
TTM_SCR_SS	357000
TTM_RAT_ACV	10064

