VERSION	0.00.00	1.03.00
FES_MODE	0
BPM_DEF	190.000	190.000	190.000	190.000
MET_DEF	4	4
RESOLUTION	384
CLK_DEF	384
COMPATIBLE_CODE	MA2

BPM	0	0	190.000
MET	0	0	4	4

TAP	2	0	3
TAP	2	0	4
BRK	2	288	2
BRK	2	288	5
TAP	3	0	2
TAP	3	96	2
TAP	3	192	2
TAP	3	192	3
TAP	4	0	5
TAP	4	96	5
TAP	4	192	4
TAP	4	192	5
TAP	5	0	2
TAP	5	96	2
TAP	5	192	2
TAP	5	192	3
TAP	6	0	4
TAP	6	96	4
TAP	6	192	3
TAP	6	192	5
TAP	7	0	6
TAP	7	96	6
TAP	7	192	6
TAP	7	192	7
TAP	8	0	1
TAP	8	96	1
TAP	8	192	0
TAP	8	192	1
TAP	9	0	6
TAP	9	96	6
TAP	9	192	7
TAP	9	288	7
TAP	10	0	0
TAP	10	96	0
TAP	10	192	1
TAP	10	192	6
TAP	11	0	5
TAP	11	96	5
TAP	11	192	4
TAP	11	192	5
TAP	12	0	2
TAP	12	96	2
TAP	12	192	2
TAP	12	192	3
TAP	13	0	4
TAP	13	0	5
TAP	13	96	4
TAP	13	96	5
TAP	13	192	4
TAP	13	192	5
TAP	14	0	3
TAP	14	96	3
TAP	14	192	2
TAP	14	192	4
TAP	15	0	1
TAP	15	96	1
TAP	15	192	0
TAP	15	288	0
TAP	16	0	7
TAP	16	96	7
TAP	16	192	6
TAP	16	288	6
TAP	17	0	5
TAP	17	96	5
TAP	17	192	4
TAP	17	288	4
TAP	18	0	3
TAP	18	0	4
TAP	18	96	3
TAP	18	96	4
XTP	18	192	2
XTP	18	192	5
STR	19	0	3
SCL	19	0	3	96	864	4
STR	23	0	3
SI_	23	0	3	96	192	0
STR	24	0	7
SI_	24	0	7	96	192	4
TAP	25	0	3
TAP	25	192	2
TAP	25	192	5
TAP	26	0	1
TAP	26	0	6
TAP	26	192	0
TAP	26	192	7
HLD	27	0	1	192
HLD	27	192	0	192
HLD	28	0	7	192
XTP	28	192	6
HLD	29	0	5	192
HLD	29	192	4	192
HLD	30	0	3	192
XTP	30	192	2
HLD	31	0	1	192
TAP	31	96	0
TAP	31	192	0
HLD	32	0	6	192
TAP	32	96	7
TAP	32	192	7
TAP	33	0	1
TAP	33	96	1
TAP	33	192	0
TAP	33	288	0
TAP	34	0	7
TAP	34	96	7
XTP	34	192	1
XTP	34	192	6
TTP	35	0	0	B	0	L1
TTP	35	0	7	B	0	L1
TTP	36	0	2	B	0	L1
TTP	36	0	5	B	0	L1
TTP	37	0	3	B	0	L1
TTP	37	0	4	B	0	L1
THO	38	0	0	192	C	1	L1
XST	39	0	0
SI_	39	0	0	96	192	4
STR	40	0	5
SI_	40	0	5	96	192	2
STR	41	0	1
SI_	41	0	1	96	192	5
STR	42	0	6
SI_	42	0	6	96	192	3
STR	43	0	2
SCL	43	0	2	96	192	7
STR	44	0	6
SCL	44	0	6	96	192	3
TAP	45	0	2
TAP	45	96	2
TAP	45	192	1
TAP	45	288	1
TAP	46	0	0
TAP	46	0	7
TAP	46	96	0
TAP	46	96	7
TAP	46	192	0
TAP	46	192	7
BRK	47	0	1
TAP	47	96	1
TAP	47	192	0
TAP	47	192	1
TAP	47	288	0
TAP	47	288	1
TAP	48	0	2
TAP	48	96	3
TAP	48	192	2
TAP	48	192	4
TAP	49	0	5
TAP	49	96	5
TAP	49	192	4
TAP	49	192	5
TAP	49	288	4
TAP	49	288	5
TAP	50	0	6
TAP	50	96	7
TAP	50	192	0
TAP	50	192	7
BRK	51	0	6
TAP	51	96	6
TAP	51	192	6
TAP	51	192	7
TAP	51	288	6
TAP	51	288	7
TAP	52	0	5
TAP	52	96	4
TAP	52	192	3
TAP	52	192	5
TAP	53	0	2
TAP	53	96	2
TAP	53	192	2
TAP	53	192	3
TAP	53	288	2
TAP	53	288	3
TAP	54	0	1
TAP	54	96	0
TAP	54	96	7
BRK	54	192	1
BRK	54	192	6
XST	55	0	0
SCR	55	0	0	96	480	5
XST	57	0	7
SCL	57	0	7	96	480	2
XST	59	0	1
SUR	59	0	1	96	192	5
XST	60	0	6
SUL	60	0	6	96	192	2
XST	61	0	1
SV_	61	0	1	96	192	4
XST	62	0	5
SV_	62	0	5	96	192	0
XTP	63	0	1
TAP	63	192	0
TAP	63	192	1
TAP	64	0	0
TAP	64	0	1
TAP	64	192	0
TAP	64	192	1
TAP	65	0	6
TAP	65	0	7
TAP	65	192	6
TAP	65	192	7
TAP	66	0	6
TAP	66	0	7
TAP	66	192	6
TAP	66	192	7
TAP	67	0	4
TAP	67	0	5
TAP	67	192	4
TAP	67	192	5
TAP	68	0	4
TAP	68	0	5
TAP	68	192	4
TAP	68	192	5
TAP	69	0	2
TAP	69	0	3
TAP	69	192	2
TAP	69	192	3
TAP	70	0	1
TAP	70	0	4
TTP	71	0	0	B	0	L1
TTP	71	0	1	B	0	L1
TTP	72	0	2	B	0	L1
TTP	72	0	3	B	0	L1
TTP	73	0	4	B	0	L1
TTP	73	0	5	B	0	L1
TTP	74	0	6	B	0	L1
TTP	74	0	7	B	0	L1
TTP	75	0	5	B	0	L1
TTP	75	192	4	B	0	L1
TTP	76	0	3	B	0	L1
TTP	76	192	2	B	0	L1
TTP	77	0	1	B	0	L1
TTP	77	192	0	B	0	L1
TTP	78	0	0	C	1	L1
TTP	78	0	2	B	0	L1
TTP	78	0	5	B	0	L1
XTP	79	0	0
XTP	79	0	1
TAP	79	192	0
TAP	79	192	1
TAP	80	0	0
TAP	80	0	7
TAP	80	96	0
TAP	80	96	7
TAP	80	192	1
TAP	80	192	6
BRK	81	0	2
TAP	81	96	2
TAP	81	192	2
TAP	81	192	3
TAP	81	288	2
TAP	81	288	3
TAP	82	0	1
TAP	82	96	0
TAP	82	192	1
TAP	82	192	7
TAP	83	0	6
TAP	83	96	6
TAP	83	192	6
TAP	83	192	7
TAP	83	288	6
TAP	83	288	7
TAP	84	0	5
TAP	84	96	4
TAP	84	192	3
TAP	84	192	5
TAP	85	0	2
TAP	85	96	2
TAP	85	192	2
TAP	85	192	3
TAP	85	288	2
TAP	85	288	3
TAP	86	0	1
TAP	86	96	0
TAP	86	96	7
XTP	86	192	1
XTP	86	192	6
BRK	87	0	6
TAP	87	96	6
TAP	87	96	7
TAP	87	192	6
TAP	87	288	6
TAP	87	288	7
TAP	88	0	5
TAP	88	96	4
TAP	88	192	3
TAP	88	192	5
TAP	89	0	2
TAP	89	96	2
TAP	89	96	3
TAP	89	192	2
TAP	89	288	2
TAP	89	288	3
TAP	90	0	1
TAP	90	96	0
TAP	90	192	0
TAP	90	192	7
TAP	91	0	1
TAP	91	96	0
TAP	91	96	1
TAP	91	192	1
TAP	91	288	0
TAP	91	288	1
TAP	92	0	2
TAP	92	96	3
TAP	92	192	2
TAP	92	192	4
TAP	93	0	5
TAP	93	96	5
TAP	93	192	6
TAP	93	288	6
TAP	94	0	7
TAP	94	96	7
TAP	94	192	0
TAP	94	192	7
TAP	94	288	0
TAP	94	288	7
BRK	95	0	1
BRK	95	0	6

T_REC_TAP	235
T_REC_BRK	10
T_REC_XTP	11
T_REC_HLD	8
T_REC_XHO	0
T_REC_STR	8
T_REC_BST	0
T_REC_XST	7
T_REC_TTP	23
T_REC_THO	1
T_REC_SLD	15
T_REC_ALL	318
T_NUM_TAP	284
T_NUM_BRK	10
T_NUM_HLD	9
T_NUM_SLD	15
T_NUM_ALL	318
T_JUDGE_TAP	294
T_JUDGE_HLD	36
T_JUDGE_SLD	15
T_JUDGE_ALL	345
TTM_EACHPAIRS	79
TTM_SCR_TAP	142000
TTM_SCR_BRK	26000
TTM_SCR_HLD	9000
TTM_SCR_SLD	22500
TTM_SCR_ALL	199500
TTM_SCR_S	192550
TTM_SCR_SS	198500
TTM_RAT_ACV	10050

