VERSION	0.00.00	1.03.00
FES_MODE	0
BPM_DEF	190.000	190.000	190.000	190.000
MET_DEF	4	4
RESOLUTION	384
CLK_DEF	384
COMPATIBLE_CODE	MA2

BPM	0	0	190.000
MET	0	0	4	4

TAP	3	0	7
TAP	4	0	7
TAP	5	0	6
TAP	6	0	6
TAP	7	0	5
TAP	8	0	5
TAP	9	0	4
TAP	10	0	3
TAP	10	0	4
TAP	11	0	3
TAP	12	0	3
TAP	13	0	2
TAP	14	0	2
TAP	15	0	1
TAP	16	0	1
TAP	17	0	0
BRK	18	0	0
BRK	18	0	7
STR	19	0	0
SI_	19	0	0	96	672	4
TAP	23	0	5
TAP	24	0	6
TAP	25	0	7
XTP	26	0	0
XTP	26	0	7
TTP	27	0	7	B	0	L1
TTP	28	0	6	B	0	L1
TTP	29	0	5	B	0	L1
TTP	30	0	4	B	0	L1
TTP	31	0	3	B	0	L1
TTP	32	0	2	B	0	L1
TTP	33	0	1	B	0	L1
TTP	34	0	0	B	0	L1
THO	35	0	0	1152	C	1	L1
HLD	39	0	0	384
HLD	41	0	1	384
HLD	43	0	2	384
HLD	45	0	3	384
TAP	47	0	4
TAP	47	192	4
TAP	48	0	4
TAP	49	0	5
TAP	49	192	5
TAP	50	0	5
TAP	51	0	6
TAP	51	192	6
TAP	52	0	6
HLD	53	0	0	384
HLD	53	0	7	384
STR	55	0	7
SI_	55	0	7	96	672	4
STR	59	0	3
SI_	59	0	3	96	672	0
TAP	63	0	7
TAP	63	192	6
TAP	64	0	5
TAP	64	192	4
TAP	65	0	3
TAP	65	192	2
TAP	66	0	1
TAP	66	192	0
TAP	67	0	7
TAP	67	96	7
TAP	67	192	7
TAP	68	0	0
TAP	68	96	0
TAP	68	192	0
TAP	69	0	7
TAP	69	96	7
TAP	69	192	0
TAP	69	288	0
BRK	70	0	0
BRK	70	0	7
TTP	71	0	0	B	0	L1
TTP	72	0	7	B	0	L1
TTP	73	0	0	B	0	L1
TTP	73	0	1	B	0	L1
TTP	74	0	6	B	0	L1
TTP	74	0	7	B	0	L1
TTP	75	0	4	B	0	L1
TTP	75	0	5	B	0	L1
TTP	76	0	2	B	0	L1
TTP	76	0	3	B	0	L1
THO	77	0	0	384	C	1	L1
XTP	79	0	7
TAP	79	192	7
TAP	80	0	0
TAP	80	192	0
TAP	81	0	1
TAP	81	96	1
TAP	81	192	1
TAP	82	0	2
TAP	82	96	2
TAP	82	192	2
TAP	83	0	3
TAP	83	96	3
TAP	83	192	3
TAP	84	0	4
TAP	84	96	4
TAP	84	192	4
HLD	85	0	3	192
HLD	85	0	4	192
TAP	86	0	3
TAP	86	0	4
XTP	86	192	2
XTP	86	192	5
TAP	87	0	4
TAP	87	96	4
TAP	87	192	4
TAP	88	0	5
TAP	88	96	5
TAP	88	192	5
TAP	89	0	6
TAP	89	96	6
TAP	89	192	6
TAP	90	0	7
TAP	90	96	7
TAP	90	192	0
TAP	90	192	7
TAP	91	0	6
TAP	91	96	6
TAP	91	192	6
TAP	91	192	7
TAP	92	0	0
TAP	92	96	0
TAP	92	192	0
TAP	92	192	1
TAP	93	0	7
TAP	93	96	7
TAP	93	192	0
TAP	93	192	7
HLD	94	0	0	192
HLD	94	0	7	192
XTP	95	0	1
XTP	95	0	6

T_REC_TAP	88
T_REC_BRK	4
T_REC_XTP	7
T_REC_HLD	10
T_REC_XHO	0
T_REC_STR	3
T_REC_BST	0
T_REC_XST	0
T_REC_TTP	18
T_REC_THO	2
T_REC_SLD	3
T_REC_ALL	135
T_NUM_TAP	116
T_NUM_BRK	4
T_NUM_HLD	12
T_NUM_SLD	3
T_NUM_ALL	135
T_JUDGE_TAP	120
T_JUDGE_HLD	96
T_JUDGE_SLD	3
T_JUDGE_ALL	219
TTM_EACHPAIRS	14
TTM_SCR_TAP	58000
TTM_SCR_BRK	10400
TTM_SCR_HLD	12000
TTM_SCR_SLD	4500
TTM_SCR_ALL	84900
TTM_SCR_S	82000
TTM_SCR_SS	84500
TTM_RAT_ACV	10047

