VERSION	0.00.00	1.03.00
FES_MODE	0
BPM_DEF	173.000	173.000	173.000	173.000
MET_DEF	4	4
RESOLUTION	384
CLK_DEF	384
COMPATIBLE_CODE	MA2

BPM	0	0	173.000
MET	0	0	4	4

STR	4	0	3
SXR	4	0	3	96	480	4
HLD	4	0	5	384
XTP	5	192	6
HLD	6	0	3	384
STR	6	0	5
SXL	6	0	5	96	480	4
XTP	7	192	1
STR	8	0	2
SXR	8	0	2	96	480	3
HLD	8	0	4	384
XTP	9	192	6
HLD	10	0	2	384
STR	10	0	4
SXL	10	0	4	96	480	3
XTP	11	192	1
STR	12	0	3
SCL	12	0	3	96	432	5
HLD	12	0	4	768
BRK	13	256	0
BRK	13	320	0
BRK	14	0	0
TTP	14	240	0	C	1	M1
TTP	14	240	1	B	0	M1
TTP	14	240	2	B	0	M1
TTP	14	240	3	B	0	M1
TTP	14	240	4	B	0	M1
TTP	14	240	5	B	0	M1
TTP	14	240	6	B	0	M1
STR	15	0	7
SI_	15	0	7	96	48	1
STR	15	48	1
SV_	15	48	1	96	48	2
STR	15	96	2
SI_	15	96	2	96	48	4
BRK	15	288	1
BRK	15	288	5
TAP	16	0	6
TAP	16	24	7
TAP	16	48	6
TAP	16	96	0
TAP	16	96	5
TAP	16	144	2
TAP	16	168	3
TAP	16	216	5
TAP	16	240	4
TAP	16	288	2
TAP	16	288	3
TAP	16	336	7
TAP	17	0	4
TAP	17	0	5
TAP	17	48	0
STR	17	96	2
SCL	17	96	2	96	48	7
TAP	17	96	3
STR	17	144	7
SCL	17	144	7	96	48	4
TAP	17	192	4
XTP	17	288	0
TAP	18	0	1
TAP	18	24	0
TAP	18	48	1
TAP	18	96	2
TAP	18	96	7
TAP	18	144	5
TAP	18	168	4
TAP	18	216	2
TAP	18	240	3
TAP	18	288	4
TAP	18	288	5
TAP	18	336	0
TAP	19	0	2
TAP	19	0	3
TAP	19	48	7
TAP	19	96	4
STR	19	96	5
SCR	19	96	5	96	48	0
STR	19	144	0
SCR	19	144	0	96	48	3
TAP	19	192	3
XTP	19	288	7
TAP	20	0	6
TAP	20	24	7
TAP	20	48	6
TAP	20	96	0
TAP	20	96	5
TAP	20	144	2
TAP	20	168	3
TAP	20	216	5
TAP	20	240	4
TAP	20	288	0
TAP	20	288	7
TAP	20	336	1
TAP	20	360	4
TAP	21	0	2
TAP	21	24	5
TAP	21	48	3
TAP	21	72	6
HLD	21	96	4	48
TAP	21	144	7
HLD	21	168	7	48
TAP	21	216	3
XTP	21	288	0
XTP	21	288	4
TAP	22	0	2
TAP	22	24	6
TAP	22	48	2
TAP	22	72	6
TAP	22	96	1
TAP	22	120	5
TAP	22	144	1
TAP	22	168	5
STR	22	192	0
SI_	22	192	0	96	48	4
TAP	22	216	4
TAP	22	240	0
TTP	23	0	3	B	0	M1
TTP	23	0	3	E	0	M1
BRK	23	0	6
BRK	23	96	1
TTP	23	96	4	B	0	M1
TTP	23	96	5	E	0	M1
TTP	23	192	0	C	1	M1
BST	23	192	7
SI_	23	192	7	96	48	3
HLD	24	0	1	96
STR	24	96	3
SI_	24	96	3	96	48	5
STR	24	144	3
SI_	24	144	3	96	48	1
TAP	24	288	6
TAP	24	336	6
TAP	25	0	2
TAP	25	48	2
STR	25	96	4
SI_	25	96	4	96	48	6
STR	25	144	4
SI_	25	144	4	96	48	2
HLD	25	288	7	96
TAP	25	336	0
HLD	26	0	1	96
TAP	26	48	6
HLD	26	96	5	96
TAP	26	144	2
STR	26	192	3
SCL	26	192	3	96	48	0
TAP	26	240	4
HLD	26	288	4	96
STR	27	0	7
SCL	27	0	7	96	48	4
TAP	27	48	0
HLD	27	96	1	120
TAP	27	216	3
TAP	27	264	3
TAP	27	288	2
TAP	27	336	1
TAP	27	336	4
XHO	28	0	6	48
TAP	28	48	7
XHO	28	96	2	48
TAP	28	144	3
STR	28	192	1
SI_	28	192	1	96	48	6
XHO	28	192	4	96
XHO	29	0	0	96
STR	29	0	5
SI_	29	0	5	96	48	2
TAP	29	192	1
STR	29	192	3
SI_	29	192	3	96	48	0
TAP	29	240	4
TAP	29	288	4
TAP	30	0	6
TAP	30	0	7
TAP	30	48	5
TAP	30	96	3
TAP	30	96	4
TAP	30	144	2
TAP	30	192	0
STR	30	192	1
SUR	30	192	1	96	48	6
TAP	30	240	7
TAP	30	288	7
XHO	31	0	0	96
STR	31	0	7
SI_	31	0	7	96	48	4
TAP	31	192	1
TAP	31	192	5
TAP	31	240	3
TAP	31	240	4
BRK	31	288	2
BRK	31	288	6
TTP	32	0	0	E	0	M1
TTP	32	32	7	E	0	M1
TTP	32	64	1	B	0	M1
TTP	32	96	5	B	0	M1
TTP	32	128	3	E	0	M1
TTP	32	160	4	E	0	M1
XTP	32	192	0
XTP	32	224	7
XTP	32	256	1
XTP	32	288	7
XTP	32	320	0
XTP	32	352	6
TTP	33	0	0	E	0	M1
TTP	33	32	7	E	0	M1
TTP	33	64	1	E	0	M1
TTP	33	96	5	B	0	M1
TTP	33	96	6	E	0	M1
TTP	33	128	2	B	0	M1
TTP	33	128	2	E	0	M1
TTP	33	160	4	E	0	M1
TTP	33	192	0	C	1	M1
XTP	33	288	0
XTP	33	288	7
TTP	34	0	0	E	0	M1
TTP	34	32	7	E	0	M1
TTP	34	64	1	B	0	M1
TTP	34	96	5	B	0	M1
TTP	34	128	3	E	0	M1
TTP	34	160	4	E	0	M1
XTP	34	192	0
XTP	34	224	7
XTP	34	256	0
TTP	34	288	0	C	1	M1
TTP	35	0	3	B	0	M1
TTP	35	0	3	E	0	M1
TTP	35	32	5	B	0	M1
TTP	35	64	1	B	0	M1
TTP	35	96	7	E	0	M1
TTP	35	128	0	E	0	M1
TTP	35	160	6	E	0	M1
XTP	35	192	2
XTP	35	224	4
XTP	35	256	3
TTP	35	288	0	C	1	M1
XHO	36	0	0	96
XHO	36	48	7	144
TAP	36	144	1
HLD	36	192	2	96
TAP	36	240	3
HLD	36	288	5	96
TAP	36	336	4
TTP	37	0	1	E	0	M1
TTP	37	24	1	B	0	M1
TTP	37	48	2	B	0	M1
TTP	37	72	3	E	0	M1
TTP	37	96	7	E	0	M1
TTP	37	120	6	B	0	M1
TTP	37	144	5	B	0	M1
TTP	37	168	5	E	0	M1
TTP	37	192	2	E	0	M1
TTP	37	216	2	B	0	M1
TTP	37	240	3	B	0	M1
TTP	37	264	4	E	0	M1
TTP	37	288	0	C	1	M1
XTP	38	0	0
XTP	38	32	7
XHO	38	64	1	128
TTP	38	96	0	C	1	M1
XTP	38	192	7
XTP	38	224	0
XHO	38	256	6	128
TTP	38	288	0	C	1	M1
XTP	39	0	0
XTP	39	32	7
XTP	39	64	1
XTP	39	96	7
XTP	39	128	0
XTP	39	160	6
THO	39	192	0	96	C	1	M1
BRK	39	288	7
XST	40	0	0
SI_	40	0	0	96	48	3
XST	40	0	5
SCL	40	0	5	96	48	3
TAP	40	96	0
TAP	40	96	5
TAP	40	192	2
TAP	40	192	7
TAP	40	240	6
TAP	40	288	0
TAP	40	288	5
TAP	41	0	2
TAP	41	0	3
TAP	41	48	1
STR	41	96	4
SXR	41	96	4	96	48	2
STR	41	96	5
SUR	41	96	5	96	48	1
TAP	41	144	6
XTP	41	288	3
XTP	41	288	7
STR	42	0	0
SCL	42	0	0	96	48	3
TAP	42	0	5
XTP	42	96	0
XTP	42	96	1
TAP	42	192	7
TAP	42	240	0
TAP	42	240	6
TAP	42	288	1
TAP	42	288	5
STR	43	0	3
SI_	43	0	3	96	48	0
STR	43	0	4
SI_	43	0	4	96	48	7
STR	43	96	3
SXR	43	96	3	96	48	3
STR	43	96	4
SXL	43	96	4	96	48	4
XTP	43	288	1
XTP	43	288	6
STR	44	0	0
SCL	44	0	0	96	72	2
HLD	44	0	2	96
TAP	44	192	0
TAP	44	240	1
STR	44	288	2
SCR	44	288	2	96	48	5
TAP	44	288	7
STR	45	0	7
SI_	45	0	7	96	48	4
TAP	45	48	7
STR	45	96	1
SI_	45	96	1	96	48	5
TAP	45	144	1
STR	45	192	3
SI_	45	192	3	96	48	0
SI_	45	192	3	96	48	6
TAP	45	240	3
STR	46	0	7
SI_	46	0	7	96	48	4
SSR	46	0	7	96	48	3
TAP	46	48	7
XTP	46	192	1
XTP	46	192	5
XTP	46	240	2
XTP	46	240	6
XTP	46	288	3
BRK	46	288	7
TAP	47	0	2
TAP	47	0	5
TAP	47	48	7
TAP	47	96	2
STR	47	96	5
SUL	47	96	5	96	96	4
TAP	47	144	0
TAP	47	192	2
TAP	47	192	5
BRK	47	288	0
HLD	48	0	0	384
TTP	48	192	3	B	0	M1
TTP	48	192	4	B	0	M1
TAP	48	288	6
HLD	49	0	6	384
TTP	49	192	5	B	0	M1
TTP	49	192	5	E	0	M1
TAP	49	288	2
HLD	50	0	2	384
TTP	50	192	1	B	0	M1
TTP	50	192	1	E	0	M1
TAP	50	288	4
HLD	51	0	4	192
TTP	51	192	0	C	1	M1
STR	52	0	0
SCR	52	0	0	96	192	3
TTP	52	192	2	B	0	M1
TTP	52	192	2	E	0	M1
TAP	52	288	7
STR	53	0	7
SCL	53	0	7	96	192	4
TTP	53	192	5	B	0	M1
TTP	53	192	6	E	0	M1
TAP	53	288	0
STR	54	0	0
SCR	54	0	0	96	192	3
TTP	54	192	0	C	0	M1
TAP	54	288	7
HLD	55	0	7	96
HLD	55	96	1	96
HLD	55	192	3	336
HLD	55	288	5	312
BST	57	0	0
SI_	57	0	0	96	48	4
BST	57	0	1
SI_	57	0	1	96	48	4
TAP	57	96	0
TAP	57	96	1
TAP	57	192	2
STR	57	192	7
SI_	57	192	7	96	48	4
TAP	57	240	6
HLD	57	288	5	96
TAP	57	288	7
TAP	58	0	0
TAP	58	24	1
HLD	58	48	2	48
STR	58	96	0
SI_	58	96	0	96	48	4
TAP	58	120	7
HLD	58	144	6	48
XTP	58	192	0
XTP	58	240	6
XTP	58	288	3
XTP	58	288	7
STR	59	0	6
SI_	59	0	6	96	48	3
STR	59	0	7
SI_	59	0	7	96	48	3
TAP	59	96	6
TAP	59	96	7
STR	59	192	0
SI_	59	192	0	96	48	3
TAP	59	192	5
TAP	59	240	1
TAP	59	288	0
HLD	59	288	2	96
TAP	60	0	7
TAP	60	24	6
HLD	60	48	5	48
TAP	60	96	7
TAP	60	120	0
STR	60	144	1
SCL	60	144	1	96	24	7
STR	60	192	6
SCR	60	192	6	96	48	1
TAP	61	0	3
HLD	61	0	7	48
TAP	61	48	4
TAP	61	96	2
HLD	61	96	7	48
TAP	61	144	3
STR	61	192	1
SI_	61	192	1	96	48	5
TAP	61	192	7
XTP	61	288	3
HLD	62	0	0	48
TAP	62	0	4
TAP	62	48	3
HLD	62	96	0	48
TAP	62	96	5
TAP	62	144	4
TAP	62	192	0
STR	62	192	6
SI_	62	192	6	96	48	2
XTP	62	288	4
XTP	63	0	3
XTP	63	0	7
TAP	63	48	5
TAP	63	72	4
TAP	63	96	6
TAP	63	144	2
TAP	63	168	3
TAP	63	192	1
TAP	63	240	6
TAP	63	240	7
TAP	63	288	0
TAP	63	288	5
XTP	64	0	1
XTP	64	24	2
XTP	64	48	3
XTP	64	72	4
XTP	64	96	7
XTP	64	120	6
XTP	64	144	5
XTP	64	168	4
XTP	64	192	7
XTP	64	216	0
XTP	64	240	1
XTP	64	264	2
XTP	64	288	3
BRK	64	288	7
STR	65	0	6
SI_	65	0	6	96	48	3
STR	65	0	7
SI_	65	0	7	96	48	3
TAP	65	96	6
TAP	65	96	7
STR	65	192	0
SI_	65	192	0	96	48	3
TAP	65	192	5
TAP	65	240	1
TAP	65	288	0
HLD	65	288	2	96
TAP	66	0	7
TAP	66	24	6
HLD	66	48	5	48
STR	66	96	7
SI_	66	96	7	96	48	3
TAP	66	120	0
HLD	66	144	1	48
XTP	66	192	7
XTP	66	240	1
XTP	66	288	0
XTP	66	288	4
STR	67	0	0
SI_	67	0	0	96	48	4
STR	67	0	1
SI_	67	0	1	96	48	4
TAP	67	96	0
TAP	67	96	1
TAP	67	192	2
STR	67	192	7
SI_	67	192	7	96	48	4
TAP	67	240	6
HLD	67	288	5	96
TAP	67	288	7
TAP	68	0	0
TAP	68	24	1
HLD	68	48	2	48
TAP	68	96	0
TAP	68	120	7
STR	68	144	6
SCR	68	144	6	96	24	0
STR	68	192	1
SCL	68	192	1	96	48	6
HLD	69	0	0	48
TAP	69	0	4
TAP	69	48	3
HLD	69	96	0	48
TAP	69	96	5
TAP	69	144	4
BST	69	192	6
SI_	69	192	6	96	48	2
BRK	69	216	7
BRK	69	240	6
BRK	69	264	7
BRK	69	288	6
TAP	70	0	0
TAP	70	0	3
TAP	70	48	1
TAP	70	96	2
TAP	70	96	5
TAP	70	144	6
STR	70	192	4
SF_	70	192	4	96	48	0
TAP	70	192	7
XHO	71	0	2	96
XHO	71	0	6	96
XHO	71	192	0	144
XTP	71	192	4
TAP	71	288	3
XST	71	336	3
SF_	71	336	3	96	48	7
BRK	72	144	1
BRK	72	144	5
STR	73	0	3
SCL	73	0	3	96	480	5
TAP	73	0	5
TAP	73	96	5
TAP	73	192	4
HLD	73	240	4	336
TAP	75	0	2
STR	75	0	4
SCR	75	0	4	96	480	2
TAP	75	96	2
TAP	75	192	3
HLD	75	240	3	336
STR	77	0	3
SCL	77	0	3	96	480	5
TAP	77	0	5
TAP	77	96	5
TAP	77	192	4
TAP	77	240	4
TTP	78	0	0	C	1	M1
STR	79	0	3
SI_	79	0	3	96	48	1
STR	79	0	4
SI_	79	0	4	96	48	6
STR	79	192	3
SI_	79	192	3	96	48	0
STR	79	192	4
SI_	79	192	4	96	48	7
TAP	80	0	2
TAP	80	0	3
TAP	80	48	1
TAP	80	96	4
TAP	80	96	5
TAP	80	144	6
BRK	80	192	0
BRK	80	192	7
BRK	80	240	3
BRK	80	240	4
BRK	80	288	1
BRK	80	288	6
XST	81	0	0
SI_	81	0	0	96	48	3
XST	81	0	5
SCL	81	0	5	96	48	3
XTP	81	96	0
XTP	81	96	5
TAP	81	192	2
TAP	81	192	6
TAP	81	240	1
TAP	81	240	5
BRK	81	288	0
XTP	81	288	4
TAP	82	0	2
TAP	82	0	3
TAP	82	48	0
STR	82	96	4
SCL	82	96	4	96	48	1
TAP	82	96	5
STR	82	144	7
SCL	82	144	7	96	48	4
XST	82	192	4
SI_	82	192	4	96	48	0
STR	83	0	2
SI_	83	0	2	96	48	7
STR	83	0	6
SI_	83	0	6	96	48	3
XTP	83	96	2
XTP	83	96	6
TAP	83	192	0
TAP	83	192	4
TAP	83	240	1
TAP	83	240	5
XTP	83	288	2
BRK	83	288	6
TAP	84	0	4
TAP	84	0	5
TAP	84	48	6
STR	84	96	0
SCR	84	96	0	96	48	3
TAP	84	96	7
XHO	84	144	3	48
STR	84	192	0
SCL	84	192	0	96	48	5
XHO	84	240	5	48
STR	85	0	1
SI_	85	0	1	96	48	4
STR	85	0	5
SI_	85	0	5	96	48	0
XTP	85	96	1
XTP	85	96	5
TAP	85	192	3
TAP	85	192	7
TAP	85	240	2
TAP	85	240	6
BST	85	288	1
SCL	85	288	1	96	48	6
XTP	85	288	5
STR	86	0	4
SI_	86	0	4	96	48	7
TAP	86	48	4
STR	86	96	3
SI_	86	96	3	96	48	0
TAP	86	144	3
STR	86	192	5
SCL	86	192	5	96	48	2
TAP	86	240	5
XTP	86	288	0
STR	87	0	7
SI_	87	0	7	96	48	4
SSR	87	0	7	96	48	3
TAP	87	48	7
XTP	87	96	7
HLD	87	192	1	96
HLD	87	192	5	96
STR	87	336	3
SXR	87	336	3	96	144	0
STR	87	336	4
SXL	87	336	4	96	144	7
TTP	88	144	0	C	1	M1
BRK	88	288	0
BRK	88	288	7
TAP	89	0	6
TAP	89	24	7
TAP	89	48	6
TAP	89	72	7
TAP	89	96	5
TAP	89	144	2
TAP	89	168	3
TAP	89	216	5
TAP	89	240	4
TAP	89	288	0
TAP	89	288	1
TAP	89	336	2
TAP	89	336	7
TAP	90	0	4
TAP	90	48	0
TAP	90	48	6
STR	90	96	1
SI_	90	96	1	96	48	4
STR	90	96	5
SI_	90	96	5	96	48	0
TAP	90	144	2
TAP	90	144	6
XTP	90	192	1
XTP	90	192	5
BRK	90	288	2
BRK	90	288	6
TAP	91	0	1
TAP	91	24	0
TAP	91	48	1
TAP	91	72	0
TAP	91	96	2
TAP	91	144	5
TAP	91	168	4
TAP	91	216	2
TAP	91	240	3
TAP	91	288	6
TAP	91	288	7
TAP	91	336	0
TAP	91	336	5
TAP	92	0	3
TAP	92	48	1
TAP	92	48	7
STR	92	96	2
SI_	92	96	2	96	48	7
STR	92	96	6
SI_	92	96	6	96	48	3
TAP	92	144	1
TAP	92	144	5
XTP	92	192	2
XTP	92	192	6
BRK	92	288	1
BRK	92	288	5
TAP	93	0	6
TAP	93	24	7
TAP	93	48	6
TAP	93	72	7
TAP	93	96	5
TAP	93	144	2
TAP	93	168	3
TAP	93	216	5
TAP	93	240	4
TAP	93	288	3
TAP	93	288	6
TAP	93	336	2
TAP	93	360	3
TAP	94	0	1
TAP	94	24	4
TAP	94	48	0
TAP	94	72	7
TAP	94	96	1
TAP	94	120	6
TAP	94	144	4
TAP	94	168	5
TAP	94	192	3
HLD	94	216	7	72
BRK	94	288	0
TAP	95	0	2
TAP	95	24	3
TAP	95	48	2
TAP	95	72	3
TAP	95	96	0
TAP	95	120	7
TAP	95	144	0
TAP	95	168	7
STR	95	192	4
SI_	95	192	4	96	48	0
TAP	95	216	5
TAP	95	240	4
TAP	95	264	5
XTP	95	288	4
BRK	96	0	2
BRK	96	0	5
XTP	96	24	3
XTP	96	24	4
BRK	96	96	1
BRK	96	96	6
XTP	96	108	2
XTP	96	108	5
XTP	96	120	3
XTP	96	120	4
BST	96	192	0
SCR	96	192	0	96	1056	6
BST	96	192	7
SCL	96	192	7	96	1056	1
XTP	96	200	1
XTP	96	200	6
XTP	96	208	2
XTP	96	208	5
XTP	96	216	3
XTP	96	216	4

T_REC_TAP	310
T_REC_BRK	38
T_REC_XTP	97
T_REC_HLD	45
T_REC_XHO	14
T_REC_STR	86
T_REC_BST	7
T_REC_XST	6
T_REC_TTP	71
T_REC_THO	1
T_REC_SLD	102
T_REC_ALL	777
T_NUM_TAP	570
T_NUM_BRK	45
T_NUM_HLD	60
T_NUM_SLD	102
T_NUM_ALL	777
T_JUDGE_TAP	615
T_JUDGE_HLD	185
T_JUDGE_SLD	102
T_JUDGE_ALL	902
TTM_EACHPAIRS	143
TTM_SCR_TAP	285000
TTM_SCR_BRK	117000
TTM_SCR_HLD	60000
TTM_SCR_SLD	153000
TTM_SCR_ALL	615000
TTM_SCR_S	592200
TTM_SCR_SS	610500
TTM_RAT_ACV	10073

