VERSION	0.00.00	1.03.00
FES_MODE	0
BPM_DEF	173.000	173.000	173.000	173.000
MET_DEF	4	4
RESOLUTION	384
CLK_DEF	384
COMPATIBLE_CODE	MA2

BPM	0	0	173.000
MET	0	0	4	4

XST	4	0	0
SCR	4	0	0	96	432	5
XTP	4	0	5
XTP	6	0	2
XST	6	0	7
SCL	6	0	7	96	432	2
XST	8	0	1
SCR	8	0	1	96	432	6
XTP	8	0	6
XTP	10	0	1
XST	10	0	6
SCL	10	0	6	96	432	1
STR	12	0	0
SXL	12	0	0	96	480	4
SXR	12	0	0	96	480	4
HLD	14	0	1	576
HLD	14	0	6	768
BRK	16	0	2
TAP	16	48	2
TAP	16	96	3
TAP	16	144	2
TAP	16	192	4
TAP	16	240	4
TAP	16	288	3
TAP	16	288	5
TAP	17	0	6
TAP	17	48	7
TAP	17	96	6
TAP	17	192	4
TAP	17	192	5
BRK	17	288	3
BRK	17	288	6
TAP	18	0	5
TAP	18	48	5
TAP	18	96	4
TAP	18	144	5
TAP	18	192	3
TAP	18	240	3
TAP	18	288	2
TAP	18	288	4
TAP	19	0	1
TAP	19	48	0
TAP	19	96	1
TAP	19	192	2
TAP	19	192	3
BRK	19	288	1
BRK	19	288	4
TAP	20	0	1
TAP	20	48	1
TAP	20	96	0
TAP	20	144	2
TAP	20	192	7
TAP	20	240	7
TAP	20	288	0
TAP	20	288	6
TAP	21	0	5
TAP	21	48	4
TAP	21	96	5
TAP	21	192	2
TAP	21	240	3
TAP	21	288	2
TAP	22	0	6
TAP	22	48	6
TAP	22	96	7
TAP	22	144	5
TAP	22	192	0
TAP	22	240	0
TAP	22	288	1
TAP	22	288	7
BRK	23	0	3
BRK	23	0	6
BRK	23	96	1
BRK	23	96	4
TTP	23	192	0	C	1	M1
TTP	23	192	2	B	0	M1
TTP	23	192	5	B	0	M1
XHO	24	0	1	96
TAP	24	96	3
TAP	24	192	4
TAP	24	240	4
TAP	24	288	2
HLD	25	0	6	96
TAP	25	96	4
TAP	25	192	3
TAP	25	240	3
TAP	25	288	5
TAP	26	0	2
TAP	26	48	2
TAP	26	96	3
TAP	26	192	5
TAP	26	240	5
TAP	26	288	4
TAP	27	0	2
TAP	27	0	3
TAP	27	96	4
TAP	27	96	5
TAP	27	192	3
TAP	27	240	4
TAP	27	288	2
TAP	27	288	5
BRK	28	0	0
BRK	28	0	1
BRK	28	96	6
BRK	28	96	7
BRK	28	192	3
BRK	28	192	4
TAP	28	288	2
TAP	28	288	5
BRK	29	0	3
BRK	29	0	6
TAP	29	96	5
TAP	29	192	1
TAP	29	192	4
TAP	29	288	2
TAP	30	0	4
TAP	30	0	5
TAP	30	96	6
TAP	30	192	3
TAP	30	240	4
TAP	30	288	3
BRK	31	0	2
BRK	31	0	3
TAP	31	96	1
TAP	31	96	4
TAP	31	192	0
TAP	31	192	5
TAP	31	288	6
TAP	31	288	7
XST	32	0	5
SI_	32	0	5	96	48	0
STR	32	192	1
SI_	32	192	1	96	48	4
TTP	33	0	5	B	0	M1
TTP	33	96	7	B	0	M1
TTP	33	96	7	E	0	M1
TTP	33	192	2	B	0	M1
TTP	33	288	0	B	0	M1
TTP	33	288	1	E	0	M1
XST	34	0	6
SI_	34	0	6	96	48	3
STR	34	192	2
SI_	34	192	2	96	48	7
TTP	35	0	6	B	0	M1
TTP	35	96	4	B	0	M1
TTP	35	96	5	E	0	M1
TTP	35	192	1	B	0	M1
TTP	35	288	3	B	0	M1
TTP	35	288	3	E	0	M1
XST	36	0	6
SCL	36	0	6	96	48	3
STR	36	192	2
SCL	36	192	2	96	48	7
TTP	37	0	0	C	0	M1
TTP	37	96	5	B	0	M1
TTP	37	96	6	E	0	M1
TTP	37	192	2	B	0	M1
TTP	37	192	2	E	0	M1
TTP	37	288	0	C	0	M1
XST	38	0	1
SCR	38	0	1	96	48	4
STR	38	192	5
SCR	38	192	5	96	48	0
TTP	39	0	3	B	0	M1
TTP	39	0	4	B	0	M1
TTP	39	96	0	B	0	M1
TTP	39	96	7	B	0	M1
TTP	39	192	0	C	1	M1
TTP	39	192	2	B	0	M1
TTP	39	192	5	B	0	M1
XTP	40	0	6
XTP	40	0	7
XTP	40	96	0
XTP	40	96	5
XTP	40	192	1
XST	40	192	3
SI_	40	192	3	96	48	6
TAP	41	0	0
TAP	41	48	0
TAP	41	96	7
TAP	41	144	7
TAP	41	192	1
TAP	41	288	3
TAP	41	288	6
XTP	42	0	0
XTP	42	0	1
XTP	42	96	2
XTP	42	96	7
XST	42	192	4
SI_	42	192	4	96	48	1
XTP	42	192	6
TAP	43	0	7
TAP	43	48	7
TAP	43	96	0
BRK	43	144	7
TAP	43	192	1
BRK	43	240	7
TAP	43	288	2
TAP	43	288	6
XTP	44	0	2
XTP	44	0	3
XTP	44	96	1
XTP	44	96	4
XTP	44	192	5
XST	44	192	7
SI_	44	192	7	96	48	2
TAP	45	0	4
TAP	45	48	4
TAP	45	96	3
TAP	45	144	3
TAP	45	192	5
TAP	45	288	2
TAP	45	288	7
XTP	46	0	4
XTP	46	0	5
XTP	46	96	3
XTP	46	96	6
XST	46	192	0
SI_	46	192	0	96	48	5
XTP	46	192	2
XTP	47	0	3
XTP	47	48	3
XTP	47	96	4
XTP	47	144	4
BRK	47	192	1
BRK	47	192	6
HLD	48	0	5	384
TTP	48	192	0	C	0	M1
HLD	49	0	2	384
TTP	49	192	0	C	0	M1
HLD	50	0	6	384
TTP	50	192	0	C	0	M1
HLD	51	0	1	384
TTP	51	192	0	C	0	M1
HLD	52	0	7	384
TTP	52	192	0	B	0	M1
TTP	52	192	7	B	0	M1
HLD	53	0	3	384
TTP	53	192	3	B	0	M1
TTP	53	192	4	B	0	M1
HLD	54	0	6	384
TTP	54	192	5	B	0	M1
TTP	54	192	6	B	0	M1
HLD	55	0	2	384
THO	55	192	0	192	C	0	M1
BST	57	0	1
SV_	57	0	1	96	96	3
STR	57	192	5
SV_	57	192	5	96	96	7
TAP	58	0	0
TAP	58	48	0
TAP	58	96	6
TAP	58	192	7
TAP	58	240	7
TAP	58	288	1
STR	59	0	2
SV_	59	0	2	96	96	0
STR	59	192	6
SV_	59	192	6	96	96	4
TAP	60	0	2
TAP	60	48	2
TAP	60	96	7
TAP	60	192	5
TAP	60	240	5
TAP	60	288	0
STR	61	0	4
SI_	61	0	4	96	48	6
STR	61	192	3
SI_	61	192	3	96	48	1
STR	62	0	6
SI_	62	0	6	96	48	3
STR	62	96	7
SI_	62	96	7	96	48	2
TAP	62	192	4
TAP	63	0	6
TAP	63	48	6
TAP	63	96	4
TAP	63	192	1
TAP	63	240	1
TAP	63	288	3
TAP	64	0	5
TAP	64	48	5
TAP	64	96	4
TAP	64	144	4
TAP	64	192	3
TAP	64	192	6
BRK	64	288	1
BRK	64	288	5
STR	65	0	2
SV_	65	0	2	96	96	7
STR	65	192	5
SV_	65	192	5	96	96	0
TAP	66	0	1
TAP	66	48	1
TAP	66	96	7
TAP	66	192	6
TAP	66	240	6
TAP	66	288	0
STR	67	0	1
SV_	67	0	1	96	96	4
STR	67	192	6
SV_	67	192	6	96	96	3
TAP	68	0	2
TAP	68	48	2
TAP	68	96	4
TAP	68	192	5
TAP	68	240	5
TAP	68	288	3
STR	69	0	1
SI_	69	0	1	96	48	3
STR	69	192	7
SI_	69	192	7	96	48	5
STR	70	0	1
SI_	70	0	1	96	48	4
STR	70	96	6
SI_	70	96	6	96	48	3
TAP	70	192	1
TAP	70	288	2
XTP	71	0	3
XTP	71	0	4
XTP	71	192	0
XTP	71	192	7
THO	71	336	0	192	C	1	M1
TTP	71	336	1	B	0	M1
TTP	71	336	2	B	0	M1
TTP	71	336	5	B	0	M1
TTP	71	336	6	B	0	M1
XST	73	0	1
SXR	73	0	1	96	480	4
XTP	73	0	6
XTP	75	0	2
XST	75	0	5
SXR	75	0	5	96	480	0
STR	77	0	1
SUR	77	0	1	96	192	6
TAP	77	0	6
TAP	78	0	2
STR	78	0	5
SUR	78	0	5	96	192	2
STR	79	0	3
SI_	79	0	3	96	48	0
STR	79	192	4
SI_	79	192	4	96	48	7
TAP	80	0	0
TAP	80	48	0
TAP	80	96	7
TAP	80	144	7
TAP	80	192	1
TAP	80	192	6
TAP	80	288	2
TAP	80	288	5
BRK	81	0	0
BRK	81	0	1
TAP	81	96	2
TAP	81	96	7
STR	81	192	4
SUL	81	192	4	96	48	0
TAP	81	192	6
TAP	82	0	7
TAP	82	48	7
TAP	82	96	1
TAP	82	144	1
TAP	82	192	2
TAP	82	192	6
TAP	82	288	0
TAP	82	288	4
BRK	83	0	6
BRK	83	0	7
TAP	83	96	0
TAP	83	96	5
TAP	83	192	1
STR	83	192	3
SUR	83	192	3	96	48	7
TAP	84	0	0
TAP	84	48	0
TAP	84	96	6
BRK	84	144	0
TAP	84	192	5
BRK	84	240	0
TAP	84	288	1
TAP	84	288	4
BRK	85	0	2
BRK	85	0	3
TAP	85	96	1
TAP	85	96	4
TAP	85	192	5
STR	85	192	7
SCR	85	192	7	96	48	2
TAP	86	0	4
TAP	86	48	4
TAP	86	96	3
TAP	86	144	3
TAP	86	192	1
TAP	86	192	4
TAP	86	288	3
TAP	86	288	6
BRK	87	0	0
BRK	87	0	7
TAP	87	96	1
TAP	87	96	6
STR	87	192	2
SCL	87	192	2	96	240	3
HLD	87	192	5	192
TTP	88	288	0	C	1	M1
XTP	89	0	6
XTP	89	48	6
XTP	89	96	7
XTP	89	144	5
TAP	89	192	1
TAP	89	240	1
TAP	89	288	0
TAP	89	336	2
TAP	90	0	6
TAP	90	48	6
TAP	90	96	4
TAP	90	144	4
TAP	90	192	3
TAP	90	192	5
BRK	90	288	6
BRK	90	288	7
TAP	91	0	1
TAP	91	48	1
TAP	91	96	0
TAP	91	144	2
TAP	91	192	6
TAP	91	240	6
TAP	91	288	7
TAP	91	336	5
TAP	92	0	1
TAP	92	48	1
TAP	92	96	3
TAP	92	144	3
TAP	92	192	2
TAP	92	192	4
BRK	92	288	0
BRK	92	288	1
TAP	93	0	2
TAP	93	48	2
TAP	93	96	4
TAP	93	144	3
TAP	93	192	5
TAP	93	240	5
TAP	93	288	3
TAP	93	336	4
TAP	94	0	1
TAP	94	48	1
TAP	94	96	3
TAP	94	144	3
TAP	94	192	2
TAP	94	192	4
BRK	94	288	0
BRK	94	288	1
TAP	95	0	6
TAP	95	48	6
TAP	95	96	0
TAP	95	144	7
TAP	95	192	1
TAP	95	240	1
TAP	95	288	0
TAP	95	288	7
BRK	96	0	2
BRK	96	0	5
BRK	96	96	0
BRK	96	96	7
TTP	96	192	0	C	1	M1
TTP	96	192	1	B	0	M1
TTP	96	192	2	B	0	M1
TTP	96	192	5	B	0	M1
TTP	96	192	6	B	0	M1

T_REC_TAP	235
T_REC_BRK	45
T_REC_XTP	38
T_REC_HLD	12
T_REC_XHO	1
T_REC_STR	28
T_REC_BST	1
T_REC_XST	14
T_REC_TTP	48
T_REC_THO	2
T_REC_SLD	44
T_REC_ALL	468
T_NUM_TAP	363
T_NUM_BRK	46
T_NUM_HLD	15
T_NUM_SLD	44
T_NUM_ALL	468
T_JUDGE_TAP	409
T_JUDGE_HLD	108
T_JUDGE_SLD	44
T_JUDGE_ALL	561
TTM_EACHPAIRS	81
TTM_SCR_TAP	181500
TTM_SCR_BRK	119600
TTM_SCR_HLD	15000
TTM_SCR_SLD	66000
TTM_SCR_ALL	382100
TTM_SCR_S	366200
TTM_SCR_SS	377500
TTM_RAT_ACV	10121

