VERSION	0.00.00	1.03.00
FES_MODE	0
BPM_DEF	173.000	173.000	173.000	173.000
MET_DEF	4	4
RESOLUTION	384
CLK_DEF	384
COMPATIBLE_CODE	MA2

BPM	0	0	173.000
MET	0	0	4	4

XST	4	0	3
SCL	4	0	3	96	1248	4
STR	8	0	5
SCR	8	0	5	96	1248	4
STR	12	0	4
SXL	12	0	4	96	480	7
STR	14	0	0
SXL	14	0	0	96	480	3
BRK	16	0	5
TAP	16	96	5
TAP	16	192	4
TAP	16	288	4
TAP	17	0	3
TAP	17	96	3
TAP	17	192	2
TAP	17	192	4
TAP	18	0	1
TAP	18	96	1
TAP	18	192	0
TAP	18	288	0
TAP	19	0	7
TAP	19	96	7
TAP	19	192	0
TAP	19	192	6
TAP	20	0	5
TAP	20	96	5
TAP	20	192	4
TAP	20	288	4
TAP	21	0	3
TAP	21	96	3
TAP	21	192	2
TAP	21	192	4
TAP	22	0	1
TAP	22	96	1
TAP	22	192	0
TAP	22	288	0
XTP	23	0	0
XTP	23	0	7
XTP	23	96	0
XTP	23	96	7
XTP	23	192	1
XTP	23	192	6
TAP	24	0	2
TAP	24	96	2
TAP	24	192	2
TAP	24	192	3
TAP	25	0	5
TAP	25	96	5
TAP	25	192	4
TAP	25	192	5
TAP	26	0	2
TAP	26	96	2
TAP	26	192	2
TAP	26	192	3
TAP	27	0	4
TAP	27	96	4
TAP	27	192	3
TAP	27	192	5
XTP	28	0	6
XTP	28	96	6
XTP	28	192	6
XTP	28	192	7
XTP	29	0	1
TAP	29	96	1
TAP	29	192	0
TAP	29	192	1
TAP	30	0	6
TAP	30	96	6
TAP	30	192	6
TAP	30	192	7
XTP	31	0	0
TAP	31	96	7
TAP	31	192	1
TAP	31	192	6
TTP	32	0	0	B	0	L1
TTP	32	0	1	B	0	L1
TTP	33	0	2	B	0	L1
TTP	33	0	3	B	0	L1
TTP	34	0	4	B	0	L1
TTP	34	0	5	B	0	L1
TTP	35	0	6	B	0	L1
TTP	35	0	7	B	0	L1
TTP	36	0	1	E	0	L1
TTP	36	0	7	E	0	L1
TTP	37	0	1	B	0	L1
TTP	37	0	6	B	0	L1
TTP	38	0	2	B	0	L1
TTP	38	0	5	B	0	L1
THO	39	0	0	192	C	0	L1
XTP	40	0	1
TAP	40	96	1
TAP	40	192	0
TAP	40	192	1
TAP	40	288	0
TAP	40	288	1
TAP	41	0	2
TAP	41	96	3
TAP	41	192	4
TAP	41	288	5
TAP	42	0	6
TAP	42	96	6
TAP	42	192	6
TAP	42	192	7
TAP	42	288	6
TAP	42	288	7
TAP	43	0	5
XTP	43	96	4
XTP	43	192	3
TAP	43	288	2
TAP	44	0	1
TAP	44	96	1
TAP	44	192	0
TAP	44	192	1
TAP	44	288	0
TAP	44	288	1
TAP	45	0	2
TAP	45	96	3
TAP	45	192	4
TAP	45	288	5
TAP	46	0	6
TAP	46	96	6
TAP	46	192	6
TAP	46	192	7
TAP	46	288	6
TAP	46	288	7
TAP	47	0	5
TAP	47	96	3
TAP	47	96	4
BRK	47	192	2
BRK	47	192	5
STR	48	0	0
SCR	48	0	0	96	480	5
STR	50	0	7
SCL	50	0	7	96	480	2
STR	52	0	1
SXL	52	0	1	96	480	4
STR	54	0	6
SXR	54	0	6	96	480	3
HLD	57	0	2	192
HLD	57	192	3	192
HLD	58	0	4	192
TAP	58	192	5
HLD	59	0	6	192
HLD	59	192	7	192
HLD	60	0	0	192
TAP	60	192	1
HLD	61	0	2	192
HLD	61	192	3	192
HLD	62	0	4	192
TAP	62	192	5
HLD	63	0	6	192
HLD	63	192	7	192
HLD	64	0	0	192
TAP	64	192	1
HLD	65	0	2	192
TAP	65	192	3
HLD	66	0	5	192
TAP	66	192	4
HLD	67	0	2	192
TAP	67	192	3
HLD	68	0	4	96
HLD	68	0	5	96
TAP	68	192	4
TAP	68	192	5
HLD	69	0	6	192
TAP	69	192	7
HLD	70	0	1	192
TAP	70	192	0
XTP	71	0	6
XTP	71	0	7
XTP	71	192	0
XTP	71	192	1
XTP	72	0	0
XTP	72	0	7
XTP	72	192	1
XTP	72	192	6
TTP	73	0	0	B	0	L1
TTP	74	0	1	B	0	L1
TTP	75	0	2	B	0	L1
TTP	76	0	3	B	0	L1
TTP	77	0	4	B	0	L1
TTP	78	0	5	B	0	L1
TTP	79	0	6	B	0	L1
THO	80	0	0	192	C	0	L1
XTP	81	0	1
TAP	81	96	0
TAP	81	96	1
TAP	81	192	1
TAP	81	288	0
TAP	81	288	1
TAP	82	0	2
TAP	82	96	3
TAP	82	192	4
TAP	82	288	5
TAP	83	0	6
TAP	83	96	6
TAP	83	96	7
TAP	83	192	6
TAP	83	288	6
TAP	83	288	7
TAP	84	0	5
XTP	84	96	4
XTP	84	192	3
TAP	84	288	2
TAP	85	0	1
TAP	85	96	0
TAP	85	96	1
TAP	85	192	1
TAP	85	288	0
TAP	85	288	1
TAP	86	0	2
TAP	86	96	3
TAP	86	192	4
TAP	86	288	5
TAP	87	0	6
TAP	87	96	6
TAP	87	96	7
TAP	87	192	6
TAP	87	288	6
TAP	87	288	7
TAP	88	0	5
TAP	88	96	3
TAP	88	96	4
XTP	88	192	2
XTP	88	192	5
TAP	89	0	5
TAP	89	96	5
TAP	89	192	4
TAP	89	288	4
TAP	90	0	3
TAP	90	96	3
TAP	90	192	2
TAP	90	192	4
TAP	91	0	1
TAP	91	96	1
TAP	91	192	0
TAP	91	288	0
TAP	92	0	7
TAP	92	96	7
TAP	92	192	0
TAP	92	192	6
TAP	93	0	5
TAP	93	96	5
TAP	93	192	4
TAP	93	288	4
TAP	94	0	3
TAP	94	96	3
TAP	94	192	2
TAP	94	192	4
TAP	95	0	1
TAP	95	96	1
TAP	95	192	0
TAP	95	288	0
XTP	96	0	0
XTP	96	0	7
XTP	96	96	0
XTP	96	96	7
BRK	96	192	1
BRK	96	192	6

T_REC_TAP	164
T_REC_BRK	5
T_REC_XTP	32
T_REC_HLD	19
T_REC_XHO	0
T_REC_STR	7
T_REC_BST	0
T_REC_XST	1
T_REC_TTP	21
T_REC_THO	2
T_REC_SLD	8
T_REC_ALL	259
T_NUM_TAP	225
T_NUM_BRK	5
T_NUM_HLD	21
T_NUM_SLD	8
T_NUM_ALL	259
T_JUDGE_TAP	230
T_JUDGE_HLD	80
T_JUDGE_SLD	8
T_JUDGE_ALL	318
TTM_EACHPAIRS	46
TTM_SCR_TAP	112500
TTM_SCR_BRK	13000
TTM_SCR_HLD	21000
TTM_SCR_SLD	12000
TTM_SCR_ALL	158500
TTM_SCR_S	153300
TTM_SCR_SS	158000
TTM_RAT_ACV	10031

