VERSION	0.00.00	1.03.00
FES_MODE	0
BPM_DEF	173.000	173.000	173.000	173.000
MET_DEF	4	4
RESOLUTION	384
CLK_DEF	384
COMPATIBLE_CODE	MA2

BPM	0	0	173.000
MET	0	0	4	4

XTP	4	0	0
TAP	6	0	0
TAP	8	0	7
TAP	10	0	7
HLD	12	0	0	768
HLD	12	0	7	768
XTP	16	0	0
TAP	17	0	0
TAP	18	0	1
TAP	19	0	1
TAP	20	0	2
TAP	21	0	2
TAP	22	0	3
BRK	23	0	3
BRK	23	0	4
TAP	24	0	4
TAP	25	0	4
TAP	26	0	5
TAP	27	0	5
HLD	28	0	6	384
TAP	30	0	6
TAP	30	192	6
XTP	31	0	6
TTP	32	0	7	B	0	L1
TTP	33	0	6	B	0	L1
TTP	34	0	5	B	0	L1
TTP	35	0	4	B	0	L1
TTP	36	0	3	B	0	L1
TTP	37	0	2	B	0	L1
THO	38	0	0	384	C	1	L1
XTP	40	0	0
TAP	40	192	0
TAP	41	0	1
TAP	41	192	1
TAP	42	0	2
TAP	42	192	2
TAP	43	0	3
TAP	43	0	4
TAP	44	0	4
TAP	44	192	4
TAP	45	0	5
TAP	45	192	5
TAP	46	0	6
TAP	46	192	6
XTP	47	0	0
XTP	47	0	7
STR	48	0	0
SI_	48	0	0	96	288	3
STR	50	0	7
SI_	50	0	7	96	288	4
STR	52	0	1
SI_	52	0	1	96	288	4
STR	54	0	6
SI_	54	0	6	96	288	3
XTP	56	0	2
TAP	57	0	2
TAP	57	192	2
TAP	58	0	1
TAP	58	96	1
TAP	58	192	1
TAP	59	0	0
TAP	59	192	0
TAP	60	0	7
TAP	60	96	0
TAP	60	192	7
TAP	61	0	6
TAP	61	192	6
TAP	62	0	5
TAP	62	96	5
TAP	62	192	5
TAP	63	0	4
TAP	63	192	4
TAP	64	0	3
TAP	64	96	4
XTP	64	192	3
TAP	65	0	4
TAP	65	192	4
TAP	66	0	5
TAP	66	96	5
TAP	66	192	4
TAP	66	192	5
TAP	67	0	3
TAP	67	192	3
TAP	68	0	2
TAP	68	96	2
XTP	68	192	2
XTP	68	192	3
TAP	69	0	1
TAP	69	192	0
TAP	69	192	1
TAP	70	0	7
TAP	70	192	6
TAP	70	192	7
TAP	71	0	0
XHO	71	192	0	336
XHO	71	192	7	336
TTP	73	0	0	B	0	L1
TTP	74	0	1	B	0	L1
TTP	75	0	2	B	0	L1
TTP	76	0	3	B	0	L1
TTP	77	0	4	B	0	L1
TTP	78	0	5	B	0	L1
THO	79	0	0	384	C	1	L1
TAP	81	0	7
TAP	81	96	7
TAP	81	192	7
TAP	82	0	6
TAP	82	96	6
TAP	82	192	6
TAP	83	0	5
TAP	83	96	5
TAP	83	192	5
TAP	84	0	3
TAP	84	0	4
XTP	84	192	3
XTP	84	192	4
TAP	85	0	2
TAP	85	96	2
TAP	85	192	2
TAP	86	0	1
TAP	86	96	1
TAP	86	192	1
TAP	87	0	0
TAP	87	0	7
HLD	87	192	0	336
HLD	87	192	7	336
XTP	89	0	1
TAP	89	96	1
TAP	89	192	1
TAP	90	0	2
TAP	90	96	2
XTP	90	192	2
XTP	90	192	3
TAP	91	0	4
TAP	91	96	4
TAP	91	192	4
TAP	92	0	5
TAP	92	96	5
XTP	92	192	4
XTP	92	192	5
TAP	93	0	6
TAP	93	96	6
TAP	93	192	6
TAP	94	0	7
TAP	94	96	7
XTP	94	192	0
XTP	94	192	7
TAP	95	0	0
TAP	95	96	0
TAP	95	192	7
TAP	95	288	7
XTP	96	0	0
XTP	96	0	7
XTP	96	96	0
XTP	96	96	7
BRK	96	192	0
BRK	96	192	7

T_REC_TAP	101
T_REC_BRK	4
T_REC_XTP	23
T_REC_HLD	5
T_REC_XHO	2
T_REC_STR	4
T_REC_BST	0
T_REC_XST	0
T_REC_TTP	12
T_REC_THO	2
T_REC_SLD	4
T_REC_ALL	157
T_NUM_TAP	140
T_NUM_BRK	4
T_NUM_HLD	9
T_NUM_SLD	4
T_NUM_ALL	157
T_JUDGE_TAP	144
T_JUDGE_HLD	84
T_JUDGE_SLD	4
T_JUDGE_ALL	232
TTM_EACHPAIRS	19
TTM_SCR_TAP	70000
TTM_SCR_BRK	10400
TTM_SCR_HLD	9000
TTM_SCR_SLD	6000
TTM_SCR_ALL	95400
TTM_SCR_S	92150
TTM_SCR_SS	95000
TTM_RAT_ACV	10042

