VERSION	0.00.00	1.03.00
FES_MODE	0
BPM_DEF	160.000	160.000	160.000	152.000
MET_DEF	4	4
RESOLUTION	384
CLK_DEF	384
COMPATIBLE_CODE	MA2

BPM	0	0	160.000
BPM	25	0	152.000
BPM	33	0	160.000
MET	0	0	4	4

STR	1	0	3
SV_	1	0	3	96	144	5
XHO	1	0	4	480
TAP	2	0	5
TAP	2	96	5
TAP	2	192	4
TAP	2	288	3
HLD	3	0	3	480
STR	3	0	4
SV_	3	0	4	96	144	2
TAP	4	0	2
TAP	4	96	2
TAP	4	192	3
TAP	4	288	4
STR	5	0	4
SV_	5	0	4	96	144	6
HLD	5	0	5	480
TAP	6	0	6
TAP	6	96	6
TAP	6	192	4
TAP	6	288	3
HLD	7	0	2	480
STR	7	0	3
SV_	7	0	3	96	144	1
TAP	8	0	1
TAP	8	96	1
TAP	8	192	3
TAP	8	288	4
TAP	9	0	4
XHO	9	0	5	192
TAP	9	192	6
TTP	9	288	1	B	0	M1
TTP	9	288	1	E	0	M1
HLD	10	0	2	192
TAP	10	0	3
TAP	10	192	1
TTP	10	288	6	B	0	M1
TTP	10	288	7	E	0	M1
TAP	11	0	3
HLD	11	0	5	96
TAP	11	96	4
HLD	11	192	2	96
TAP	11	192	4
TAP	11	288	3
TAP	12	0	3
HLD	12	0	4	192
STR	12	192	0
SI_	12	192	0	96	48	4
BRK	12	288	0
XHO	13	0	3	96
TAP	13	0	6
TAP	13	48	6
TAP	13	96	5
TAP	13	144	4
TAP	13	192	2
XHO	13	192	3	96
TAP	13	240	2
TAP	13	288	1
TAP	13	336	0
XHO	14	0	0	96
TAP	14	0	7
TAP	14	48	7
TAP	14	96	6
TAP	14	144	5
STR	14	192	3
SI_	14	192	3	96	48	7
XTP	14	192	4
TAP	14	240	5
TAP	14	288	6
TAP	15	0	1
XHO	15	0	4	96
TAP	15	48	1
TAP	15	96	2
TAP	15	144	3
XHO	15	192	4	96
TAP	15	192	5
TAP	15	240	5
TAP	15	288	6
TAP	15	336	7
XHO	16	0	0	96
TAP	16	0	1
TAP	16	48	1
TAP	16	96	2
TAP	16	144	3
STR	16	192	4
SCL	16	192	4	96	48	1
XTP	16	192	5
TAP	16	240	6
TAP	16	288	7
XHO	17	0	0	96
XTP	17	0	5
TAP	17	48	5
TAP	17	96	6
TAP	17	144	7
XHO	17	192	0	96
TAP	17	192	1
TAP	17	240	1
TAP	17	288	2
TAP	17	336	3
TAP	18	0	4
XHO	18	0	5	96
TAP	18	48	4
TAP	18	96	3
TAP	18	144	2
STR	18	192	1
SI_	18	192	1	96	48	4
XTP	18	192	4
TAP	18	240	5
TAP	18	288	7
TAP	19	0	3
XTP	19	0	5
TAP	19	48	4
TAP	19	96	3
TAP	19	144	1
XTP	19	192	2
TAP	19	192	4
TAP	19	240	3
TAP	19	288	4
TAP	19	336	6
XST	20	0	0
SCL	20	0	0	96	48	5
TAP	20	48	0
STR	20	96	4
SI_	20	96	4	96	48	7
TAP	20	144	4
XTP	20	192	3
TAP	20	240	2
TAP	20	288	0
TAP	20	288	1
XTP	21	0	2
TAP	21	0	4
TAP	21	48	3
TAP	21	96	4
TAP	21	144	6
TAP	21	192	3
XTP	21	192	5
TAP	21	240	4
TAP	21	288	3
TAP	21	336	1
XST	22	0	7
SCR	22	0	7	96	48	2
TAP	22	48	7
STR	22	96	3
SI_	22	96	3	96	48	0
TAP	22	144	3
XTP	22	192	4
TAP	22	240	5
TAP	22	288	6
TAP	22	288	7
XTP	23	0	1
TAP	23	0	3
TAP	23	48	2
TAP	23	96	4
TAP	23	144	3
TAP	23	192	3
XTP	23	192	4
TAP	23	240	2
TAP	23	240	5
TAP	23	288	1
TAP	23	288	6
TAP	23	336	1
TAP	23	336	6
XTP	24	0	0
TAP	24	24	7
TAP	24	48	0
TAP	24	72	7
TAP	24	96	0
TAP	24	120	7
TAP	24	144	0
TAP	24	168	7
XTP	24	192	0
TAP	24	204	1
TAP	24	216	2
TAP	24	228	3
TAP	24	240	4
TAP	24	252	5
TAP	24	264	6
TAP	24	276	7
BRK	24	288	0
THO	25	0	0	576	C	0	M1
TTP	27	0	2	E	0	M1
TTP	27	12	2	B	0	M1
TTP	27	192	6	E	0	M1
TTP	27	204	5	B	0	M1
TTP	28	0	2	B	0	M1
TTP	28	12	3	E	0	M1
TTP	28	192	5	B	0	M1
TTP	28	204	5	E	0	M1
HLD	29	0	3	192
TAP	29	0	4
HLD	29	192	2	192
TTP	30	0	2	B	0	M1
TTP	30	0	2	E	0	M1
TTP	30	96	4	B	0	M1
TTP	30	96	4	E	0	M1
TTP	30	192	6	B	0	M1
TTP	30	192	6	E	0	M1
HLD	31	0	3	384
HLD	31	0	4	192
STR	32	0	4
SUL	32	0	4	96	192	3
HLD	33	0	2	96
TAP	33	0	4
STR	33	96	3
SI_	33	96	3	96	48	5
TAP	33	192	1
TAP	33	240	1
TAP	33	288	2
TAP	34	0	3
HLD	34	0	5	96
STR	34	96	4
SI_	34	96	4	96	48	2
TAP	34	192	6
TAP	34	240	6
TAP	34	288	5
HLD	35	0	3	192
TAP	35	0	4
TTP	35	96	2	B	0	M1
HLD	35	192	4	192
TTP	35	288	5	B	0	M1
HLD	36	0	3	192
TTP	36	96	4	E	0	M1
TTP	36	192	0	C	0	M1
TAP	36	288	0
TAP	36	288	7
TAP	37	0	5
TAP	37	48	4
TAP	37	96	3
TAP	37	96	6
TAP	37	192	2
TAP	37	240	3
STR	37	288	1
SI_	37	288	1	96	48	5
TAP	37	288	4
STR	38	0	5
SI_	38	0	5	96	48	1
TAP	38	96	6
BRK	38	192	2
BRK	38	192	7
STR	38	336	1
SI_	38	336	1	96	48	4
TAP	39	48	5
HLD	39	96	5	96
STR	39	192	4
SCL	39	192	4	96	48	1
TAP	39	240	4
TAP	39	288	6
TTP	40	0	7	E	0	M1
TTP	40	48	2	B	0	M1
TTP	40	48	3	E	0	M1
TTP	40	96	4	B	0	M1
TTP	40	96	5	E	0	M1
TTP	40	144	1	E	0	M1
TTP	40	192	0	C	1	M1
STR	41	0	2
SI_	41	0	2	96	48	4
TAP	41	0	7
TAP	41	96	2
STR	41	96	6
SI_	41	96	6	96	48	2
TTP	41	192	0	C	1	M1
BRK	41	192	6
TAP	41	336	0
TAP	42	0	0
TAP	42	48	1
TAP	42	48	3
STR	42	96	4
SCL	42	96	4	96	96	0
TAP	42	144	5
TAP	42	192	6
TAP	43	0	0
STR	43	0	5
SI_	43	0	5	96	48	3
STR	43	96	1
SI_	43	96	1	96	48	5
TAP	43	96	5
TTP	43	192	0	C	1	M1
BRK	43	192	1
TAP	43	336	7
TAP	44	0	7
TAP	44	48	4
TAP	44	48	6
TAP	44	96	3
TAP	44	144	2
TAP	44	192	1
TAP	44	192	3
TAP	44	288	3
TAP	44	288	4
STR	45	0	2
SCR	45	0	2	96	48	5
TAP	45	0	5
TAP	45	96	2
STR	45	96	7
SV_	45	96	7	96	48	2
TTP	45	192	0	C	1	M1
BRK	45	192	7
TAP	45	336	1
TAP	46	0	1
TAP	46	48	2
TAP	46	48	3
TAP	46	96	4
TAP	46	144	5
TAP	46	192	3
TAP	46	192	6
TAP	46	240	7
TAP	46	288	0
TAP	46	288	7
STR	47	0	1
SI_	47	0	1	96	48	3
STR	47	0	3
SI_	47	0	3	96	48	5
XTP	47	192	6
XTP	47	224	4
XTP	47	256	5
XTP	47	288	2
XTP	47	320	3
XTP	47	352	1
HLD	48	0	7	192
STR	48	96	0
SCR	48	96	0	96	96	4
TAP	48	336	5
HLD	49	0	4	48
HLD	49	0	6	48
HLD	49	72	1	48
HLD	49	72	3	48
TAP	49	144	4
TAP	49	144	5
BRK	49	192	2
BRK	49	192	7
TAP	50	0	5
TAP	50	24	4
TAP	50	48	6
TAP	50	96	2
TAP	50	96	7
TAP	50	144	1
TAP	50	168	0
TAP	50	216	2
TAP	50	240	3
TAP	50	288	0
TAP	50	288	7
TAP	50	336	6
TAP	50	360	4
TAP	51	0	5
TAP	51	24	3
TAP	51	48	4
TAP	51	96	0
TAP	51	96	5
TAP	51	144	6
TAP	51	168	7
TAP	51	216	3
TAP	51	240	4
TAP	51	288	0
TAP	51	288	1
TAP	51	336	1
TAP	51	360	3
TAP	52	0	2
TAP	52	24	4
TAP	52	48	3
TAP	52	96	2
TAP	52	96	7
TAP	52	144	5
TAP	52	168	4
TAP	52	216	0
TAP	52	240	7
TAP	52	288	2
TAP	52	288	3
TAP	52	336	5
TAP	52	360	4
TAP	53	0	6
TAP	53	48	2
TAP	53	72	3
TAP	53	96	1
TAP	53	144	7
TAP	53	168	0
TAP	53	192	7
TAP	53	240	1
TAP	53	264	6
TAP	53	288	2
TAP	53	312	5
TAP	53	336	3
TAP	53	360	4
STR	54	0	3
SCL	54	0	3	96	48	0
TAP	54	48	4
TAP	54	96	3
TAP	54	96	5
TAP	54	144	5
STR	54	192	6
SCL	54	192	6	96	48	3
TAP	54	240	7
TAP	54	288	0
TAP	54	288	6
TAP	54	336	0
STR	55	0	1
SCL	55	0	1	96	48	6
TAP	55	48	2
TAP	55	96	1
TAP	55	96	3
TAP	55	144	3
HLD	55	192	4	96
BRK	55	288	0
STR	56	0	3
SI_	56	0	3	96	48	7
TAP	56	0	5
TAP	56	48	4
TAP	56	96	2
TAP	56	96	3
STR	56	144	1
SI_	56	144	1	96	48	5
TAP	56	192	0
TAP	56	240	1
TAP	56	240	7
STR	56	288	6
SCL	56	288	6	96	96	1
BRK	57	0	3
BRK	57	0	6
TAP	57	192	0
TAP	57	192	7
TAP	57	264	3
TAP	57	264	5
TAP	57	288	3
TAP	57	288	5
TAP	57	336	2
TAP	57	360	4
TAP	58	0	1
TAP	58	24	0
TAP	58	48	1
TAP	58	96	2
TAP	58	96	7
TAP	58	144	5
TAP	58	168	4
TAP	58	216	1
TAP	58	240	0
TAP	58	288	2
TAP	58	288	3
TAP	58	336	6
TAP	58	360	4
TAP	59	0	5
TAP	59	24	4
TAP	59	48	6
TAP	59	96	0
TAP	59	96	5
TAP	59	144	2
TAP	59	168	3
TAP	59	216	6
TAP	59	240	7
TAP	59	288	0
TAP	59	288	1
TAP	59	336	6
TAP	59	360	4
TAP	60	0	5
TAP	60	48	1
TAP	60	72	3
TAP	60	96	2
TAP	60	144	4
TAP	60	168	3
TAP	60	192	4
TAP	60	240	0
TAP	60	264	7
TAP	60	288	1
TAP	60	312	6
TAP	60	336	2
TAP	60	360	5
TAP	61	0	3
TAP	61	0	4
BRK	61	48	1
BRK	61	48	6
BRK	61	96	1
BRK	61	96	6
XHO	61	192	2	48
XHO	61	192	4	48
XHO	61	264	3	48
XHO	61	264	5	48
XTP	61	336	2
XTP	61	336	6
TAP	62	0	1
TAP	62	0	5
TAP	62	48	6
TAP	62	72	7
TAP	62	96	6
TAP	62	144	2
TAP	62	144	4
TAP	62	192	1
TAP	62	216	0
TAP	62	240	1
TAP	62	288	3
STR	62	288	5
SCR	62	288	5	96	96	3
BRK	63	0	0
HLD	63	192	6	48
HLD	63	192	7	48
HLD	63	264	0	48
HLD	63	264	1	48
TAP	63	336	2
TAP	63	336	7
STR	64	0	3
SI_	64	0	3	96	48	7
TAP	64	48	3
STR	64	96	4
SI_	64	96	4	96	48	0
TAP	64	144	4
STR	64	192	2
SCR	64	192	2	96	48	5
TAP	64	240	2
TAP	64	288	6
TAP	64	336	6
BRK	65	0	0
TAP	65	24	7
TAP	65	48	1
TAP	65	72	7
BRK	65	96	0
TAP	65	120	6
TAP	65	144	1
TAP	65	168	7
BRK	65	192	0
TAP	65	204	1
TAP	65	216	2
TAP	65	228	3
TAP	65	240	4
TAP	65	252	5
TAP	65	264	6
TAP	65	276	7
BRK	65	288	0
TAP	65	300	1
TAP	65	312	2
TAP	65	324	3
TAP	65	336	4
TAP	65	348	5
TAP	65	360	6
TAP	65	372	7
BST	66	0	0
TTP	66	0	0	C	1	M1
SF_	66	0	0	96	192	4
XST	67	0	5
SI_	67	0	5	96	48	3
TAP	67	48	5
TAP	67	96	0
TAP	67	144	1
XST	67	192	2
SI_	67	192	2	96	48	5
TAP	67	240	2
TAP	67	288	5
TAP	67	336	6
XTP	68	0	7
TAP	68	48	7
TAP	68	96	4
TAP	68	96	6
TAP	68	144	5
TAP	68	192	3
XST	68	192	4
SI_	68	192	4	96	48	0
TAP	68	240	2
TAP	68	288	1
TAP	68	288	4
XTP	69	0	1
TAP	69	48	7
TAP	69	96	0
TAP	69	96	6
HLD	69	144	5	96
XTP	69	192	4
TAP	69	240	3
TAP	69	288	1
TAP	69	288	7
HLD	69	336	2	96
XTP	70	0	3
TAP	70	48	4
TAP	70	96	0
TAP	70	96	6
TAP	70	144	5
TAP	70	192	2
XTP	70	192	4
TAP	70	240	1
TAP	70	288	3
TAP	70	288	7
BST	71	0	2
SI_	71	0	2	96	48	4
TAP	71	48	2
TAP	71	96	7
TAP	71	144	6
XST	71	192	5
SI_	71	192	5	96	48	2
TAP	71	240	5
TAP	71	288	2
TAP	71	336	1
XTP	72	0	0
TAP	72	48	0
TAP	72	96	1
TAP	72	96	3
TAP	72	144	2
XST	72	192	3
SI_	72	192	3	96	48	7
TAP	72	192	4
TAP	72	240	5
TAP	72	288	3
TAP	72	288	6
XTP	73	0	6
TAP	73	48	0
TAP	73	96	1
TAP	73	96	7
HLD	73	144	2	96
XTP	73	192	3
TAP	73	240	4
TAP	73	288	0
TAP	73	288	6
HLD	73	336	5	96
XTP	74	0	4
TAP	74	48	3
TAP	74	96	1
TAP	74	96	7
TAP	74	144	2
XTP	74	192	3
TAP	74	192	5
TAP	74	240	6
TAP	74	288	0
TAP	74	288	4
XST	75	0	5
SI_	75	0	5	96	48	3
TAP	75	48	5
TAP	75	96	3
TAP	75	144	2
XST	75	192	1
SI_	75	192	1	96	48	5
TAP	75	240	1
TAP	75	288	5
TAP	75	336	6
XST	76	0	7
SI_	76	0	7	96	48	1
TAP	76	48	7
TAP	76	96	1
TAP	76	144	2
XST	76	192	3
SI_	76	192	3	96	48	7
TAP	76	240	3
BRK	76	288	7
XTP	77	0	5
TAP	77	48	4
TAP	77	48	6
TAP	77	96	2
TAP	77	144	1
TAP	77	144	3
XTP	77	192	0
TAP	77	192	7
TAP	77	240	1
TAP	77	240	6
TAP	77	288	5
TAP	77	336	4
XTP	78	0	2
TAP	78	24	3
TAP	78	48	2
TAP	78	72	3
TAP	78	96	1
TAP	78	120	4
TAP	78	144	1
TAP	78	168	4
XTP	78	192	2
TAP	78	216	5
TAP	78	240	2
TAP	78	264	5
TAP	78	288	3
TAP	78	312	6
TAP	78	336	3
TAP	78	360	6
XTP	79	0	2
TAP	79	24	7
TAP	79	48	2
TAP	79	72	7
TAP	79	96	1
TAP	79	120	0
TAP	79	144	1
TAP	79	168	0
XTP	79	192	1
TAP	79	204	2
TAP	79	216	3
TAP	79	228	4
TAP	79	240	5
TAP	79	252	6
TAP	79	264	7
TAP	79	276	0
TAP	79	288	1
TAP	79	288	5
TAP	80	0	3
TAP	80	0	4
BRK	80	96	2
BRK	80	96	4
BRK	80	144	3
BRK	80	144	5
BRK	80	192	1
BRK	80	192	4
BRK	80	240	3
BRK	80	240	6
BST	80	288	0
SI_	80	288	0	96	48	4
BST	80	288	7
SI_	80	288	7	96	48	3
BRK	80	336	2
BRK	80	336	5
BRK	81	0	0
BRK	81	0	7

T_REC_TAP	442
T_REC_BRK	34
T_REC_XTP	38
T_REC_HLD	31
T_REC_XHO	15
T_REC_STR	37
T_REC_BST	4
T_REC_XST	11
T_REC_TTP	33
T_REC_THO	1
T_REC_SLD	52
T_REC_ALL	698
T_NUM_TAP	561
T_NUM_BRK	38
T_NUM_HLD	47
T_NUM_SLD	52
T_NUM_ALL	698
T_JUDGE_TAP	599
T_JUDGE_HLD	150
T_JUDGE_SLD	52
T_JUDGE_ALL	801
TTM_EACHPAIRS	120
TTM_SCR_TAP	280500
TTM_SCR_BRK	98800
TTM_SCR_HLD	47000
TTM_SCR_SLD	78000
TTM_SCR_ALL	504300
TTM_SCR_S	485500
TTM_SCR_SS	500500
TTM_RAT_ACV	10075

