VERSION	0.00.00	1.03.00
FES_MODE	0
BPM_DEF	160.000	160.000	160.000	152.000
MET_DEF	4	4
RESOLUTION	384
CLK_DEF	384
COMPATIBLE_CODE	MA2

BPM	0	0	160.000
BPM	25	0	152.000
BPM	33	0	160.000
MET	0	0	4	4

STR	1	0	3
SCL	1	0	3	96	480	4
TAP	1	0	4
TAP	2	288	3
TAP	2	288	4
TAP	3	0	3
STR	3	0	4
SCR	3	0	4	96	480	3
TAP	4	288	3
TAP	4	288	4
HLD	5	0	2	576
TAP	5	0	5
TAP	5	96	5
TAP	5	192	4
TAP	5	288	4
TAP	6	0	3
TAP	6	96	3
TAP	6	192	3
TAP	6	288	3
TAP	6	288	4
TAP	7	0	4
HLD	7	0	5	576
TAP	7	96	4
TAP	7	192	3
TAP	7	288	3
TAP	8	0	2
TAP	8	96	2
TAP	8	192	2
TAP	8	288	3
TAP	8	288	4
HLD	9	0	2	384
TAP	9	96	3
TAP	9	192	4
TAP	9	288	3
HLD	10	0	5	288
TAP	10	96	4
TAP	10	192	3
TAP	10	288	4
TAP	11	0	3
TAP	11	0	4
TAP	11	96	2
TAP	11	96	5
TAP	11	192	1
TAP	11	192	6
STR	11	288	0
SV_	11	288	0	96	192	3
STR	11	288	7
SV_	11	288	7	96	192	4
BRK	12	288	1
BRK	12	288	6
STR	13	0	3
SI_	13	0	3	96	96	1
TAP	13	0	4
TAP	13	192	0
TAP	13	288	0
TAP	13	288	1
STR	14	0	2
SI_	14	0	2	96	96	4
TAP	14	0	7
TAP	14	192	5
TAP	14	288	4
TAP	14	288	5
TAP	15	0	3
STR	15	0	4
SI_	15	0	4	96	96	6
TAP	15	192	7
TAP	15	288	6
TAP	15	288	7
TAP	16	0	0
STR	16	0	5
SI_	16	0	5	96	96	3
TAP	16	192	2
TAP	16	288	2
TAP	16	288	3
STR	17	0	3
SI_	17	0	3	96	96	1
TAP	17	0	4
TAP	17	192	0
TAP	17	288	0
TAP	17	288	1
STR	18	0	2
SI_	18	0	2	96	96	4
TAP	18	0	7
TAP	18	192	5
TAP	18	288	4
TAP	18	288	5
TAP	19	0	3
STR	19	0	4
SI_	19	0	4	96	96	6
TAP	19	192	7
TAP	19	288	6
TAP	19	288	7
TAP	20	0	0
STR	20	0	5
SI_	20	0	5	96	96	3
TAP	20	192	2
TAP	20	288	2
TAP	20	288	3
TAP	21	0	1
TAP	21	48	1
TAP	21	96	3
TAP	21	192	2
TAP	21	192	4
TAP	21	288	1
TAP	21	288	5
TAP	22	0	6
TAP	22	48	6
TAP	22	96	4
TAP	22	192	3
TAP	22	192	5
TAP	22	288	2
TAP	22	288	6
TAP	23	0	1
TAP	23	48	1
TAP	23	96	3
TAP	23	192	6
TAP	23	240	6
TAP	23	288	4
XTP	24	0	3
XTP	24	0	4
XTP	24	48	3
XTP	24	48	4
XST	24	96	3
SF_	24	96	3	96	96	7
XTP	24	96	4
BRK	25	0	1
BRK	25	0	5
TTP	26	0	4	E	0	M1
TTP	26	192	3	E	0	M1
TTP	27	0	0	C	0	M1
TTP	27	192	3	E	0	M1
TTP	28	0	4	E	0	M1
TTP	28	192	5	E	0	M1
HLD	29	0	4	576
TTP	29	192	5	B	0	M1
TTP	29	192	6	B	0	M1
TTP	30	0	3	B	0	M1
TTP	30	0	4	B	0	M1
TTP	30	192	1	B	0	M1
TTP	30	192	2	B	0	M1
HLD	31	0	3	576
TTP	31	192	1	B	0	M1
TTP	31	192	2	B	0	M1
TTP	32	0	3	B	0	M1
TTP	32	0	4	B	0	M1
TTP	32	192	5	B	0	M1
TTP	32	192	6	B	0	M1
TAP	33	0	2
TAP	33	48	2
TAP	33	96	3
TAP	33	192	3
TAP	33	192	4
TAP	33	288	4
TAP	33	288	6
HLD	34	0	5	96
STR	34	96	4
SI_	34	96	4	96	96	0
HLD	35	0	1	96
TAP	35	96	0
HLD	35	192	6	96
TAP	35	288	5
HLD	36	0	2	96
TAP	36	96	3
TAP	36	192	4
TAP	36	192	5
TAP	36	288	3
TAP	36	288	6
TAP	37	0	5
TAP	37	48	5
TAP	37	96	4
TAP	37	192	3
TAP	37	192	4
TAP	37	288	1
TAP	37	288	3
HLD	38	0	2	96
STR	38	96	3
SI_	38	96	3	96	96	7
HLD	39	0	6	96
TAP	39	96	7
HLD	39	192	1	96
TAP	39	288	2
HLD	40	0	5	96
STR	40	96	4
SCL	40	96	4	96	192	0
XTP	41	0	7
XTP	41	96	4
XTP	41	96	5
XHO	41	192	1	144
XTP	41	192	4
TAP	41	336	0
TAP	42	0	0
TAP	42	96	6
TAP	42	96	7
HLD	42	192	4	96
HLD	42	192	5	96
XTP	43	0	0
XTP	43	0	1
XTP	43	96	2
XTP	43	96	3
XTP	43	192	3
XHO	43	192	6	144
TAP	43	336	7
TAP	44	0	7
TAP	44	96	0
TAP	44	96	1
HLD	44	192	2	96
HLD	44	192	3	96
XTP	45	0	4
XTP	45	0	5
XTP	45	96	2
XTP	45	96	3
XHO	45	192	1	144
XTP	45	192	6
TAP	45	336	0
TAP	46	0	0
TAP	46	96	2
TAP	46	96	3
TAP	46	192	4
TAP	46	192	5
STR	46	288	7
SCL	46	288	7	96	96	4
STR	47	96	0
SCR	47	96	0	96	96	3
STR	47	288	4
SXL	47	288	4	96	288	0
SXR	47	288	4	96	288	0
XTP	49	0	1
XTP	49	0	3
XTP	49	72	4
XTP	49	72	6
XTP	49	144	0
XTP	49	144	7
BRK	49	192	1
BRK	49	192	6
XTP	50	0	0
XST	50	0	1
SI_	50	0	1	96	96	4
STR	50	192	6
SI_	50	192	6	96	96	3
STR	51	0	1
SCL	51	0	1	96	96	6
TAP	51	192	5
TAP	51	240	5
STR	51	288	4
SCR	51	288	4	96	384	3
TTP	53	0	0	C	1	M1
TAP	53	192	0
TAP	53	192	7
TAP	53	288	1
TAP	53	288	6
STR	54	0	5
SCR	54	0	5	96	96	0
STR	54	192	2
SCR	54	192	2	96	96	5
HLD	55	0	7	144
TAP	55	144	0
TAP	55	192	0
TAP	55	288	1
TAP	55	288	6
TAP	56	0	3
TAP	56	0	4
TAP	56	96	2
TAP	56	144	2
TAP	56	144	3
TAP	56	240	5
TAP	56	288	4
STR	56	288	5
SXL	56	288	5	96	192	2
BRK	57	288	0
BRK	57	288	4
XST	58	0	6
SI_	58	0	6	96	96	3
XTP	58	0	7
STR	58	192	1
SI_	58	192	1	96	96	4
STR	59	0	6
SCR	59	0	6	96	96	1
TAP	59	192	2
TAP	59	240	2
STR	59	288	3
SCL	59	288	3	96	288	4
XTP	61	48	0
XTP	61	48	7
BRK	61	96	1
BRK	61	96	6
XTP	61	192	4
XTP	61	192	6
XTP	61	264	1
XTP	61	264	3
XTP	61	336	0
XTP	61	336	7
TAP	62	0	0
TAP	62	0	7
TAP	62	96	6
TAP	62	144	4
TAP	62	144	6
TAP	62	240	1
TAP	62	288	1
TAP	62	288	3
HLD	63	0	0	96
HLD	63	0	7	96
HLD	63	192	1	72
HLD	63	264	2	72
TAP	63	336	3
STR	64	0	3
SI_	64	0	3	96	96	7
TAP	64	0	4
STR	64	192	6
SCL	64	192	6	96	192	1
XTP	65	144	0
XHO	65	192	7	72
HLD	65	264	6	72
TAP	65	336	5
STR	66	0	4
SF_	66	0	4	96	192	0
TAP	67	0	6
STR	67	0	7
SI_	67	0	7	96	96	2
TAP	67	192	3
TAP	67	240	3
TAP	67	288	2
TAP	67	288	3
STR	68	0	4
SI_	68	0	4	96	96	1
TAP	68	0	5
TAP	68	192	0
TAP	68	240	0
TAP	68	288	2
TAP	68	288	7
STR	69	0	0
SI_	69	0	0	96	96	5
TAP	69	0	1
TAP	69	192	4
TAP	69	240	4
TAP	69	288	4
TAP	69	288	5
TAP	70	0	2
STR	70	0	3
SI_	70	0	3	96	96	6
TAP	70	192	7
TAP	70	240	7
TAP	70	288	0
TAP	70	288	5
TAP	71	0	6
STR	71	0	7
SCR	71	0	7	96	96	2
TAP	71	192	3
TAP	71	240	3
TAP	71	288	2
TAP	71	288	3
STR	72	0	4
SCL	72	0	4	96	96	1
TAP	72	0	5
TAP	72	192	0
TAP	72	240	0
TAP	72	288	2
TAP	72	288	7
STR	73	0	0
SCL	73	0	0	96	96	5
TAP	73	0	1
TAP	73	192	4
TAP	73	240	4
TAP	73	288	4
TAP	73	288	5
TAP	74	0	2
STR	74	0	3
SCR	74	0	3	96	96	6
TAP	74	192	7
TAP	74	240	7
TAP	74	288	0
TAP	74	288	5
TAP	75	0	1
TAP	75	48	1
TAP	75	96	3
TAP	75	144	3
TAP	75	192	4
TAP	75	288	4
TAP	75	288	5
TAP	76	0	6
TAP	76	48	6
TAP	76	96	4
TAP	76	144	4
TAP	76	192	3
TAP	76	288	2
TAP	76	288	3
TAP	77	0	1
TAP	77	48	1
TAP	77	96	3
TAP	77	144	3
TAP	77	192	4
TAP	77	240	4
TAP	77	288	6
TAP	78	0	0
TAP	78	48	0
TAP	78	96	7
TAP	78	144	7
XTP	78	192	0
XTP	78	192	7
XTP	78	240	0
XTP	78	240	7
XTP	78	288	0
XTP	78	288	7
THO	79	0	0	288	C	0	M1
TTP	79	0	1	B	0	M1
TTP	79	0	2	B	0	M1
TTP	79	0	5	B	0	M1
TTP	79	0	6	B	0	M1
XTP	80	96	0
XTP	80	96	7
XTP	80	144	0
XTP	80	144	7
XTP	80	192	1
XTP	80	192	6
XTP	80	240	1
XTP	80	240	6
XST	80	288	0
SI_	80	288	0	96	48	4
XST	80	288	7
SI_	80	288	7	96	48	3
XTP	80	336	0
XTP	80	336	7

T_REC_TAP	220
T_REC_BRK	10
T_REC_XTP	52
T_REC_HLD	24
T_REC_XHO	4
T_REC_STR	38
T_REC_BST	0
T_REC_XST	5
T_REC_TTP	23
T_REC_THO	1
T_REC_SLD	44
T_REC_ALL	421
T_NUM_TAP	338
T_NUM_BRK	10
T_NUM_HLD	29
T_NUM_SLD	44
T_NUM_ALL	421
T_JUDGE_TAP	348
T_JUDGE_HLD	116
T_JUDGE_SLD	44
T_JUDGE_ALL	508
TTM_EACHPAIRS	107
TTM_SCR_TAP	169000
TTM_SCR_BRK	26000
TTM_SCR_HLD	29000
TTM_SCR_SLD	66000
TTM_SCR_ALL	290000
TTM_SCR_S	280350
TTM_SCR_SS	289000
TTM_RAT_ACV	10034

