VERSION	0.00.00	1.03.00
FES_MODE	0
BPM_DEF	160.000	160.000	160.000	152.000
MET_DEF	4	4
RESOLUTION	384
CLK_DEF	384
COMPATIBLE_CODE	MA2

BPM	0	0	160.000
BPM	25	0	152.000
BPM	33	0	160.000
MET	0	0	4	4

HLD	1	0	5	768
HLD	3	0	4	768
HLD	5	0	3	768
HLD	7	0	2	384
HLD	9	0	1	384
HLD	10	0	0	384
HLD	11	0	7	384
TAP	12	0	6
TAP	13	0	5
TAP	13	96	5
TAP	13	192	4
TAP	13	288	4
TAP	14	0	3
TAP	14	96	3
TAP	14	192	2
TAP	14	192	4
TAP	15	0	1
TAP	15	96	1
TAP	15	192	0
TAP	15	288	0
TAP	16	0	7
TAP	16	96	7
TAP	16	192	0
TAP	16	192	6
TAP	17	0	5
TAP	17	96	5
TAP	17	192	4
TAP	17	288	4
TAP	18	0	3
TAP	18	96	3
TAP	18	192	2
TAP	18	192	4
TAP	19	0	1
TAP	19	96	1
TAP	19	192	0
TAP	19	288	0
TAP	20	0	7
TAP	20	96	7
TAP	20	192	0
TAP	20	192	6
TAP	21	0	5
TAP	21	96	5
TAP	21	192	6
TAP	21	288	6
TAP	22	0	7
TAP	22	96	7
TAP	22	192	0
TAP	22	288	0
TAP	23	0	1
TAP	23	96	1
TAP	23	192	2
TAP	23	288	2
TAP	24	0	3
TAP	24	96	3
BRK	24	192	2
BRK	24	192	4
TTP	25	0	3	B	0	L1
TTP	26	0	2	B	0	L1
TTP	27	0	1	B	0	L1
TTP	28	0	0	B	0	L1
TTP	29	0	7	B	0	L1
TTP	30	0	6	B	0	L1
TTP	31	0	5	B	0	L1
TTP	32	0	0	C	0	L1
HLD	33	0	1	96
TAP	33	96	0
TAP	33	192	0
HLD	34	0	6	96
TAP	34	96	7
TAP	34	192	7
HLD	35	0	1	96
TAP	35	96	0
TAP	35	192	0
TAP	36	0	7
TAP	36	96	7
TAP	36	192	0
TAP	36	192	6
HLD	37	0	5	96
TAP	37	96	4
TAP	37	192	4
HLD	38	0	2	96
TAP	38	96	3
TAP	38	192	3
HLD	39	0	5	96
TAP	39	96	4
TAP	39	192	4
TAP	40	0	3
TAP	40	0	4
TAP	40	96	3
TAP	40	96	4
TAP	40	192	2
TAP	40	192	5
XTP	41	0	6
XTP	41	0	7
XTP	41	96	6
XTP	41	96	7
XTP	41	192	6
XTP	41	192	7
XST	42	0	5
SI_	42	0	5	96	144	0
XTP	43	0	0
XTP	43	0	1
XTP	43	96	0
XTP	43	96	1
XTP	43	192	0
XTP	43	192	1
XST	44	0	1
SI_	44	0	1	96	144	4
XTP	45	0	4
XTP	45	0	5
XTP	45	96	4
XTP	45	96	5
XTP	45	192	4
XTP	45	192	5
XST	46	0	5
SI_	46	0	5	96	144	2
STR	47	0	1
SI_	47	0	1	96	144	4
TAP	48	0	5
TAP	48	96	5
TAP	48	192	6
TAP	48	288	6
XTP	49	0	0
XTP	49	0	7
XTP	49	96	0
XTP	49	96	7
BRK	49	192	1
BRK	49	192	6
TAP	50	0	0
TAP	50	96	1
TAP	50	192	0
TAP	50	192	1
TAP	50	288	0
TAP	50	288	1
TAP	51	0	2
TAP	51	96	3
TAP	51	192	2
TAP	51	192	4
TAP	52	0	5
TAP	52	96	5
TAP	52	192	4
TAP	52	192	5
TAP	52	288	4
TAP	52	288	5
TAP	53	0	6
TAP	53	96	7
TAP	53	192	0
TAP	53	192	7
TAP	54	0	6
TAP	54	96	6
TAP	54	192	6
TAP	54	192	7
TAP	54	288	6
TAP	54	288	7
TAP	55	0	5
TAP	55	96	4
TAP	55	192	3
TAP	55	192	5
TAP	56	0	2
TAP	56	96	2
TAP	56	192	2
TAP	56	192	3
TAP	56	288	2
TAP	56	288	3
TAP	57	0	1
TAP	57	96	0
TAP	57	96	7
TAP	57	192	1
TAP	57	192	6
TAP	58	0	1
TAP	58	96	0
TAP	58	96	1
TAP	58	192	1
TAP	58	288	0
TAP	58	288	1
TAP	59	0	2
TAP	59	96	3
TAP	59	192	2
TAP	59	192	4
TAP	60	0	5
TAP	60	96	4
TAP	60	96	5
TAP	60	192	5
TAP	60	288	4
TAP	60	288	5
TAP	61	0	6
TAP	61	96	7
TAP	61	192	0
TAP	61	192	6
TAP	62	0	7
TAP	62	96	6
TAP	62	96	7
TAP	62	192	6
TAP	62	288	6
TAP	62	288	7
TAP	63	0	5
TAP	63	96	4
TAP	63	192	3
TAP	63	192	5
TAP	64	0	2
TAP	64	96	2
TAP	64	96	3
TAP	64	192	2
TAP	64	288	2
TAP	64	288	3
TAP	65	0	1
TAP	65	96	0
TAP	65	96	7
STR	65	192	1
SLR	65	192	1	96	336	0
STR	65	192	6
SLL	65	192	6	96	336	7
HLD	67	0	1	192
TAP	67	192	0
TAP	67	288	0
TAP	68	0	7
TAP	68	96	7
TAP	68	192	0
TAP	68	192	6
HLD	69	0	6	192
TAP	69	192	7
TAP	69	288	7
TAP	70	0	0
TAP	70	96	0
TAP	70	192	1
TAP	70	192	7
HLD	71	0	2	192
TAP	71	192	3
TAP	71	288	3
TAP	72	0	4
TAP	72	96	4
TAP	72	192	3
TAP	72	192	5
HLD	73	0	5	192
TAP	73	192	4
TAP	73	288	4
TAP	74	0	3
TAP	74	0	4
TAP	74	96	3
TAP	74	96	4
TAP	74	192	2
TAP	74	192	5
TAP	75	0	3
TAP	75	96	3
TAP	75	192	2
TAP	75	288	2
TAP	76	0	1
TAP	76	96	1
TAP	76	192	0
TAP	76	288	0
TAP	77	0	7
TAP	77	96	7
TAP	77	192	6
TAP	77	288	6
TAP	78	0	5
TAP	78	96	5
TAP	78	192	4
TAP	78	288	4
STR	79	0	3
SI_	79	0	3	96	192	7
STR	79	0	4
SI_	79	0	4	96	192	0
XTP	80	96	1
XTP	80	96	6
XTP	80	192	1
XTP	80	192	6
XTP	80	288	2
XTP	80	288	5
XTP	81	0	2
XTP	81	0	5

T_REC_TAP	195
T_REC_BRK	4
T_REC_XTP	30
T_REC_HLD	17
T_REC_XHO	0
T_REC_STR	5
T_REC_BST	0
T_REC_XST	3
T_REC_TTP	8
T_REC_THO	0
T_REC_SLD	8
T_REC_ALL	270
T_NUM_TAP	241
T_NUM_BRK	4
T_NUM_HLD	17
T_NUM_SLD	8
T_NUM_ALL	270
T_JUDGE_TAP	245
T_JUDGE_HLD	108
T_JUDGE_SLD	8
T_JUDGE_ALL	361
TTM_EACHPAIRS	58
TTM_SCR_TAP	120500
TTM_SCR_BRK	10400
TTM_SCR_HLD	17000
TTM_SCR_SLD	12000
TTM_SCR_ALL	159900
TTM_SCR_S	154750
TTM_SCR_SS	159500
TTM_RAT_ACV	10025

