VERSION	0.00.00	1.03.00
FES_MODE	0
BPM_DEF	160.000	160.000	160.000	152.000
MET_DEF	4	4
RESOLUTION	384
CLK_DEF	384
COMPATIBLE_CODE	MA2

BPM	0	0	160.000
BPM	25	0	152.000
BPM	33	0	160.000
MET	0	0	4	4

TAP	5	0	3
TAP	7	0	4
TAP	9	0	3
TAP	10	0	3
TAP	11	0	4
BRK	12	0	4
TAP	13	0	5
TAP	13	192	5
TAP	14	0	5
TAP	15	0	6
TAP	15	192	6
TAP	16	0	6
TAP	17	0	7
TAP	17	192	7
TAP	18	0	7
TAP	19	0	0
TAP	19	192	0
TAP	20	0	0
TAP	21	0	1
TAP	21	192	1
TAP	22	0	1
TAP	23	0	0
TAP	23	0	1
TAP	24	0	6
TAP	24	0	7
STR	25	0	0
SI_	25	0	0	96	288	4
STR	27	0	7
SI_	27	0	7	96	288	3
TAP	29	0	2
TAP	30	0	3
TAP	31	0	4
TAP	32	0	3
TAP	32	0	4
HLD	33	0	4	384
TAP	35	0	3
TAP	35	192	3
TAP	36	0	2
TAP	37	0	1
TAP	37	192	1
TAP	38	0	0
TAP	39	0	7
TAP	39	192	7
XTP	40	0	0
XTP	40	0	7
TTP	41	0	6	B	0	L1
TTP	42	0	5	B	0	L1
TTP	43	0	4	B	0	L1
TTP	44	0	3	B	0	L1
TTP	45	0	2	B	0	L1
TTP	46	0	1	B	0	L1
TTP	47	0	0	B	0	L1
TTP	47	0	7	B	0	L1
THO	48	0	0	384	C	1	L1
TAP	50	0	0
TAP	50	96	0
TAP	50	192	0
TAP	51	0	1
TAP	51	96	1
TAP	51	192	1
TAP	52	0	2
TAP	52	96	2
TAP	52	192	2
TAP	53	0	3
TAP	53	0	4
XTP	53	192	3
XTP	53	192	4
TAP	54	0	4
TAP	54	192	4
TAP	54	192	5
TAP	55	0	3
TAP	55	192	2
TAP	55	192	3
TAP	56	0	3
TAP	56	0	4
TAP	56	192	3
TAP	56	192	4
HLD	57	0	3	192
HLD	57	0	4	192
TAP	58	0	5
TAP	58	96	5
TAP	58	192	5
TAP	59	0	6
TAP	59	96	6
TAP	59	192	6
TAP	60	0	7
TAP	60	96	7
TAP	60	192	7
TAP	61	0	0
TAP	61	0	7
XTP	61	192	0
XTP	61	192	7
TAP	62	0	0
TAP	62	96	0
TAP	62	192	0
TAP	63	0	7
TAP	63	96	7
TAP	63	192	7
HLD	64	0	0	384
HLD	64	0	7	384
BRK	66	0	0
BRK	66	0	7
TAP	67	0	6
TAP	67	192	6
TAP	68	0	5
TAP	68	192	5
TAP	69	0	4
TAP	69	192	4
TAP	70	0	3
TAP	70	192	3
TAP	71	0	2
TAP	71	192	2
TAP	72	0	1
TAP	72	192	1
TAP	73	0	0
TAP	73	192	0
TAP	74	0	7
TAP	74	192	0
TAP	74	192	7
TAP	75	0	1
TAP	75	96	1
TAP	75	192	0
TAP	75	192	1
TAP	76	0	2
TAP	76	96	2
TAP	76	192	2
TAP	76	192	3
TAP	77	0	5
TAP	77	96	5
TAP	77	192	4
TAP	77	192	5
TAP	78	0	6
TAP	78	96	6
TAP	78	192	6
TAP	78	192	7
HLD	79	0	0	192
HLD	79	0	7	192
TAP	80	0	0
TAP	80	96	0
TAP	80	192	7
TAP	80	288	7
BRK	81	0	1
BRK	81	0	6

T_REC_TAP	112
T_REC_BRK	5
T_REC_XTP	6
T_REC_HLD	7
T_REC_XHO	0
T_REC_STR	2
T_REC_BST	0
T_REC_XST	0
T_REC_TTP	8
T_REC_THO	1
T_REC_SLD	2
T_REC_ALL	143
T_NUM_TAP	128
T_NUM_BRK	5
T_NUM_HLD	8
T_NUM_SLD	2
T_NUM_ALL	143
T_JUDGE_TAP	133
T_JUDGE_HLD	48
T_JUDGE_SLD	2
T_JUDGE_ALL	183
TTM_EACHPAIRS	22
TTM_SCR_TAP	64000
TTM_SCR_BRK	13000
TTM_SCR_HLD	8000
TTM_SCR_SLD	3000
TTM_SCR_ALL	88000
TTM_SCR_S	84900
TTM_SCR_SS	87500
TTM_RAT_ACV	10057

