VERSION	0.00.00	1.03.00
FES_MODE	0
BPM_DEF	150.000	150.000	150.000	150.000
MET_DEF	4	4
RESOLUTION	384
CLK_DEF	384
COMPATIBLE_CODE	MA2

BPM	0	0	150.000
MET	0	0	4	4

TAP	1	0	3
HLD	1	0	5	672
TAP	1	96	3
TAP	1	192	3
TAP	1	288	3
TAP	2	0	4
TAP	2	96	4
TAP	2	192	4
TAP	2	288	3
TAP	2	336	3
HLD	3	0	2	672
TAP	3	0	4
TAP	3	96	4
TAP	3	192	4
TAP	3	288	4
TAP	4	0	3
TAP	4	96	3
TAP	4	192	3
TAP	4	288	4
TAP	4	336	4
TAP	5	0	3
HLD	5	0	5	288
TAP	5	96	4
TAP	5	192	3
TAP	5	288	2
TAP	5	336	2
HLD	6	0	1	288
TAP	6	0	4
TAP	6	96	3
TAP	6	192	4
TAP	6	288	5
TAP	6	336	5
HLD	7	0	6	48
HLD	7	48	0	48
HLD	7	96	7	48
HLD	7	144	1	48
TAP	7	192	6
TAP	7	216	5
TAP	7	240	4
TAP	7	264	3
TAP	7	288	0
TAP	7	312	1
TAP	7	336	2
TAP	7	360	3
BST	8	0	0
SUL	8	0	0	96	192	3
BST	8	0	4
SUL	8	0	4	96	192	7
THO	9	0	0	288	C	0	M1
HLD	9	0	1	288
TTP	9	0	3	B	0	M1
THO	10	0	0	288	C	0	M1
TTP	10	0	5	B	0	M1
HLD	10	0	6	288
TAP	11	0	0
TAP	11	48	7
TAP	11	96	1
TAP	11	96	6
TAP	11	192	3
TAP	11	240	4
STR	11	288	2
SI_	11	288	2	96	48	7
TAP	11	288	5
TAP	12	0	2
STR	12	0	4
SI_	12	0	4	96	48	0
STR	12	96	3
SI_	12	96	3	96	48	7
TAP	12	96	4
TAP	12	192	3
TAP	12	192	5
BRK	12	288	1
BRK	12	288	6
HLD	13	0	2	96
HLD	13	96	3	96
HLD	13	192	4	96
TAP	13	288	7
TAP	14	0	0
TAP	14	24	7
TAP	14	72	0
TAP	14	96	7
TAP	14	144	3
TAP	14	168	4
TAP	14	216	3
TAP	14	240	4
TAP	14	288	2
TAP	14	288	5
TAP	15	0	1
TAP	15	0	5
TAP	15	48	2
TAP	15	48	6
TAP	15	96	3
TAP	15	96	7
TAP	15	144	0
TAP	15	144	4
TAP	15	192	2
TAP	15	192	6
TAP	15	240	1
TAP	15	240	5
STR	15	288	0
SI_	15	288	0	96	48	3
TAP	15	288	4
TAP	15	336	3
TAP	15	336	7
STR	16	0	0
SI_	16	0	0	96	48	5
STR	16	96	0
SF_	16	96	0	96	48	4
TAP	16	192	0
STR	16	288	7
SI_	16	288	7	96	48	4
SI_	16	288	7	96	48	5
TAP	16	336	7
STR	17	0	7
SI_	17	0	7	96	48	1
SI_	17	0	7	96	48	2
STR	17	96	7
SF_	17	96	7	96	48	3
TAP	17	192	7
BRK	17	288	1
BRK	17	288	5
TAP	18	0	1
TAP	18	48	1
TAP	18	96	1
TAP	18	96	3
TAP	18	144	2
TAP	18	168	3
TAP	18	216	2
TAP	18	216	4
TAP	18	264	4
TAP	18	288	3
TAP	18	336	1
TAP	18	336	4
STR	19	0	2
SI_	19	0	2	96	48	5
TAP	19	24	2
TAP	19	72	7
TAP	19	96	7
STR	19	144	6
SI_	19	144	6	96	48	1
TAP	19	168	6
TAP	19	216	3
TAP	19	240	3
TAP	19	288	4
TAP	19	336	5
TAP	20	0	6
TAP	20	48	6
TAP	20	96	6
TAP	20	96	7
TAP	20	144	0
TAP	20	168	7
TAP	20	192	0
TAP	20	240	1
TAP	20	240	6
TAP	20	288	2
TAP	20	288	5
TAP	20	336	4
TAP	21	0	3
TAP	21	0	5
TAP	21	24	3
TAP	21	24	5
TAP	21	72	1
TAP	21	72	4
TAP	21	96	1
TAP	21	96	4
TAP	21	144	3
TAP	21	144	7
TAP	21	168	3
TAP	21	168	7
TAP	21	216	0
TAP	21	216	5
TAP	21	240	0
TAP	21	240	5
BRK	21	288	7
TAP	22	0	6
TAP	22	48	6
TAP	22	96	4
TAP	22	96	6
TAP	22	144	5
TAP	22	168	4
TAP	22	216	3
TAP	22	216	5
TAP	22	264	3
TAP	22	288	4
TAP	22	336	3
TAP	22	336	6
STR	23	0	5
SI_	23	0	5	96	48	2
TAP	23	24	5
TAP	23	72	0
TAP	23	96	0
STR	23	144	1
SI_	23	144	1	96	48	6
TAP	23	168	1
TAP	23	216	4
TAP	23	240	4
TAP	23	288	3
TAP	23	336	2
TAP	24	0	1
TAP	24	48	1
TAP	24	96	0
TAP	24	96	1
TAP	24	144	7
TAP	24	168	0
TAP	24	192	7
TAP	24	240	1
TAP	24	240	6
TAP	24	288	2
TAP	24	288	5
TAP	24	336	3
TTP	25	0	0	C	1	M1
TTP	25	0	6	B	0	M1
TTP	25	0	7	B	0	M1
TTP	25	0	7	E	0	M1
TTP	25	96	0	B	0	M1
TTP	25	96	0	C	1	M1
TTP	25	96	1	B	0	M1
TTP	25	96	1	E	0	M1
TTP	25	192	0	C	1	M1
TTP	25	192	3	B	0	M1
TTP	25	192	4	B	0	M1
TTP	25	192	4	E	0	M1
BRK	25	288	1
BRK	25	288	6
TAP	26	0	4
TAP	26	48	2
TAP	26	96	5
HLD	26	120	5	240
TAP	26	168	1
TAP	26	216	0
TAP	26	264	7
TAP	26	312	6
TAP	26	360	3
TAP	27	0	3
TAP	27	48	5
TAP	27	96	2
HLD	27	120	2	240
TAP	27	168	6
TAP	27	216	7
TAP	27	264	0
TAP	27	312	1
TAP	27	360	4
TAP	28	0	4
TAP	28	48	2
TAP	28	96	4
HLD	28	120	4	240
TAP	28	168	0
TAP	28	216	7
TAP	28	264	6
TAP	28	312	5
TAP	28	360	2
TAP	29	0	2
TAP	29	48	4
TAP	29	96	3
TAP	29	120	4
HLD	29	168	2	48
HLD	29	216	4	48
HLD	29	264	3	48
HLD	29	312	5	48
TAP	29	360	0
TAP	30	0	0
TAP	30	48	1
TAP	30	96	6
HLD	30	120	6	240
TAP	30	168	2
TAP	30	216	3
TAP	30	264	4
TAP	30	312	5
TAP	30	360	0
TAP	31	0	0
TAP	31	48	6
TAP	31	96	1
HLD	31	120	1	240
TAP	31	168	5
TAP	31	216	4
TAP	31	264	3
TAP	31	312	2
TAP	31	360	7
TAP	32	0	7
TAP	32	48	1
TAP	32	96	7
HLD	32	120	7	240
TAP	32	168	3
TAP	32	216	4
TAP	32	264	5
TAP	32	312	6
TAP	32	360	1
TAP	33	0	1
TAP	33	48	7
TAP	33	96	0
TAP	33	120	7
HLD	33	168	1	48
HLD	33	216	7	48
HLD	33	264	0	48
HLD	33	312	6	48
TAP	33	360	2
TAP	34	0	2
TAP	34	48	3
TAP	34	96	1
TAP	34	96	4
TAP	34	144	2
TAP	34	168	3
TAP	34	192	2
TAP	34	240	3
TAP	34	240	4
STR	34	288	5
SUL	34	288	5	96	144	3
TAP	34	312	4
TAP	34	336	5
TAP	35	0	3
TAP	35	96	2
STR	35	144	2
SUL	35	144	2	96	96	5
TAP	35	240	2
STR	35	240	5
SCR	35	240	5	96	96	2
TAP	35	336	3
HLD	36	48	4	96
TAP	36	144	3
TAP	36	192	3
STR	36	288	1
SUL	36	288	1	96	144	7
TAP	36	288	7
TAP	37	0	7
TAP	37	96	6
HLD	37	144	6	96
TAP	37	240	0
STR	37	336	2
SXR	37	336	2	96	144	4
STR	37	336	5
SXL	37	336	5	96	144	3
TAP	38	240	7
BRK	38	288	7
STR	39	0	6
SUL	39	0	6	96	192	1
TAP	39	96	4
TAP	39	144	4
TAP	39	240	3
STR	39	336	2
SCR	39	336	2	96	192	5
HLD	40	48	0	96
TAP	40	192	0
TAP	40	288	7
HLD	41	0	6	96
TAP	41	96	0
STR	41	144	1
SI_	41	144	1	96	48	4
STR	41	144	5
SI_	41	144	5	96	48	0
TAP	41	240	1
TAP	41	240	5
TTP	42	0	0	C	1	M1
TTP	42	0	2	B	0	M1
TTP	42	0	3	B	0	M1
TTP	42	0	3	E	0	M1
TTP	42	0	6	B	0	M1
TTP	42	0	7	B	0	M1
TTP	42	0	7	E	0	M1
STR	42	288	0
SCR	42	288	0	96	96	3
STR	43	0	3
SUR	43	0	3	96	96	0
STR	43	96	0
SUR	43	96	0	96	96	4
STR	43	192	4
SUR	43	192	4	96	96	0
STR	43	288	0
SUR	43	288	0	96	96	5
STR	44	0	5
SCR	44	0	5	96	96	0
STR	44	96	0
SUR	44	96	0	96	96	4
STR	44	192	4
SUR	44	192	4	96	96	0
STR	44	288	0
SCR	44	288	0	96	96	3
STR	45	0	3
SUR	45	0	3	96	96	0
STR	45	96	0
SUR	45	96	0	96	96	4
STR	45	192	4
SUR	45	192	4	96	96	0
TAP	45	288	0
TTP	46	0	5	E	0	M1
TTP	46	0	6	E	0	M1
TTP	46	96	2	E	0	M1
TTP	46	96	3	E	0	M1
BRK	46	192	3
BRK	46	192	4
BRK	46	240	3
BRK	46	240	4
BRK	46	288	3
BST	46	288	4
SCR	46	288	4	96	96	7
STR	47	0	7
SUR	47	0	7	96	96	4
STR	47	96	4
SUR	47	96	4	96	96	0
STR	47	192	0
SUR	47	192	0	96	96	4
STR	47	288	4
SUR	47	288	4	96	96	1
STR	48	0	1
SCR	48	0	1	96	96	4
STR	48	96	4
SUR	48	96	4	96	96	0
STR	48	192	0
SUR	48	192	0	96	96	4
STR	48	288	4
SCR	48	288	4	96	96	7
STR	49	0	7
SUR	49	0	7	96	96	4
STR	49	96	4
SUR	49	96	4	96	96	0
STR	49	192	0
SUR	49	192	0	96	96	4
TAP	49	288	4
TTP	50	0	1	E	0	M1
TTP	50	0	2	E	0	M1
TTP	50	96	6	E	0	M1
TTP	50	96	7	E	0	M1
TTP	50	192	3	B	0	M1
TTP	50	192	4	B	0	M1
TTP	50	192	4	E	0	M1
BRK	50	288	1
BRK	50	288	6
TAP	51	0	4
HLD	51	0	5	96
TAP	51	48	3
TAP	51	96	2
HLD	51	144	1	96
TAP	51	192	4
TAP	51	240	5
TAP	51	288	6
TAP	51	336	0
TAP	51	360	7
TAP	52	0	0
STR	52	96	0
SXL	52	96	0	96	96	2
STR	52	96	7
SXR	52	96	7	96	96	5
STR	53	0	0
SCL	53	0	0	96	48	5
TAP	53	48	1
TAP	53	96	2
TAP	53	144	3
STR	53	192	4
SCL	53	192	4	96	48	1
TAP	53	240	5
TAP	53	288	6
TAP	53	336	7
XTP	54	0	0
XTP	54	0	6
XTP	54	96	3
XTP	54	96	4
XST	54	192	1
SI_	54	192	1	96	48	4
XST	54	192	7
SI_	54	192	7	96	48	4
BRK	54	288	1
BRK	54	288	7
HLD	55	0	5	96
TAP	55	48	6
HLD	55	96	1	96
TAP	55	144	0
HLD	55	192	7	96
TAP	55	240	6
HLD	55	288	2	96
TAP	55	336	3
TAP	56	0	5
TAP	56	24	5
TAP	56	72	3
TAP	56	96	4
TAP	56	144	2
TAP	56	168	2
TAP	56	216	4
TAP	56	240	3
TAP	56	288	3
TAP	56	288	4
TAP	56	336	5
TAP	57	0	4
TAP	57	0	5
TAP	57	48	3
TAP	57	48	6
TAP	57	96	2
TAP	57	96	7
TTP	57	144	0	C	0	M1
TAP	57	192	6
TAP	57	192	7
TAP	57	240	0
TAP	57	240	5
STR	57	288	1
SI_	57	288	1	96	48	7
STR	57	288	4
SI_	57	288	4	96	48	6
TTP	57	336	0	C	0	M1
STR	58	0	1
SI_	58	0	1	96	48	3
STR	58	0	4
SI_	58	0	4	96	48	2
TAP	58	96	1
STR	58	96	4
SF_	58	96	4	96	48	0
TAP	58	192	4
BRK	58	288	2
BRK	58	288	6
TAP	59	0	5
TAP	59	48	5
TAP	59	96	4
TAP	59	96	6
TAP	59	144	3
TAP	59	168	4
TAP	59	216	1
TAP	59	240	0
TAP	59	288	2
TAP	59	288	7
TAP	59	336	2
TAP	59	360	3
TAP	60	0	2
TAP	60	48	2
TAP	60	96	1
TAP	60	96	3
TAP	60	144	4
TAP	60	168	3
TAP	60	216	6
TAP	60	240	7
TAP	60	288	0
TAP	60	288	5
HLD	60	336	2	192
TAP	60	336	4
TAP	61	0	1
TAP	61	48	0
TAP	61	96	7
HLD	61	144	6	192
TAP	61	192	5
TAP	61	240	4
STR	61	288	3
SI_	61	288	3	96	48	5
HLD	61	336	2	336
STR	62	0	3
SI_	62	0	3	96	48	6
STR	62	96	3
SI_	62	96	3	96	48	7
TAP	62	192	3
BRK	62	288	0
TAP	63	0	1
TAP	63	48	1
TAP	63	96	0
TAP	63	96	2
TAP	63	144	7
TAP	63	168	0
TAP	63	216	5
TAP	63	240	4
TAP	63	288	3
TAP	63	288	6
TAP	63	336	7
TAP	64	0	6
TAP	64	48	6
TAP	64	96	0
TAP	64	96	5
TAP	64	144	0
TAP	64	168	7
TAP	64	216	2
TAP	64	240	3
TAP	64	288	1
TAP	64	288	4
TAP	64	336	0
TAP	65	0	1
TAP	65	0	5
TAP	65	48	2
TAP	65	48	6
TAP	65	96	3
TAP	65	96	7
TTP	65	144	0	E	0	M1
TTP	65	144	4	E	0	M1
TTP	65	144	5	E	0	M1
TTP	65	144	7	E	0	M1
TAP	65	192	2
TAP	65	192	6
TAP	65	240	1
TAP	65	240	5
TAP	65	288	0
STR	65	288	4
SI_	65	288	4	96	48	6
SI_	65	288	4	96	48	7
TTP	65	336	0	E	0	M1
TTP	65	336	1	E	0	M1
TTP	65	336	3	E	0	M1
TTP	65	336	4	E	0	M1
STR	66	0	4
SI_	66	0	4	96	48	1
SI_	66	0	4	96	48	2
STR	66	96	4
SF_	66	96	4	96	48	0
TAP	66	192	4
STR	66	288	3
SI_	66	288	3	96	48	5
SI_	66	288	3	96	48	6
TAP	66	336	3
STR	67	0	3
SI_	67	0	3	96	48	0
SI_	67	0	3	96	48	1
STR	67	96	3
SF_	67	96	3	96	48	7
TAP	67	192	3
BRK	67	288	1
BRK	67	288	5
TAP	68	0	1
TAP	68	48	1
TAP	68	96	1
TAP	68	96	3
TAP	68	144	2
TAP	68	168	3
TAP	68	216	2
TAP	68	216	4
TAP	68	264	4
TAP	68	288	3
TAP	68	336	1
TAP	68	336	4
STR	69	0	2
SI_	69	0	2	96	48	7
TAP	69	24	2
TAP	69	72	5
TAP	69	96	5
STR	69	144	6
SI_	69	144	6	96	48	3
TAP	69	168	6
TAP	69	216	0
TAP	69	240	0
TAP	69	288	1
TAP	69	336	7
TAP	70	0	6
TAP	70	48	6
TAP	70	96	6
TAP	70	96	7
TAP	70	144	0
TAP	70	168	7
TAP	70	192	0
TAP	70	240	1
TAP	70	240	3
TAP	70	288	2
TAP	70	288	4
TAP	70	336	3
TAP	70	336	5
TAP	71	0	6
TAP	71	0	7
TAP	71	24	6
TAP	71	24	7
TAP	71	72	4
TAP	71	72	5
TAP	71	96	4
TAP	71	96	5
TAP	71	144	2
TAP	71	144	3
TAP	71	168	2
TAP	71	168	3
TAP	71	216	0
TAP	71	216	1
TAP	71	240	0
TAP	71	240	1
BRK	71	288	2
BRK	71	288	7
TAP	72	0	6
TAP	72	48	6
TAP	72	96	4
TAP	72	96	6
TAP	72	144	5
TAP	72	168	4
TAP	72	216	3
TAP	72	216	5
TAP	72	264	3
TAP	72	288	4
TAP	72	336	3
TAP	72	336	6
STR	73	0	5
SI_	73	0	5	96	48	0
TAP	73	24	5
TAP	73	72	2
TAP	73	96	2
STR	73	144	1
SI_	73	144	1	96	48	4
TAP	73	168	1
TAP	73	216	7
TAP	73	240	7
TAP	73	288	6
TAP	73	336	0
TAP	74	0	1
TAP	74	48	1
TAP	74	96	0
TAP	74	96	1
TAP	74	144	7
TAP	74	168	0
TAP	74	192	7
TAP	74	240	1
TAP	74	240	6
TAP	74	288	2
TAP	74	288	5
TAP	74	336	4
TTP	75	0	0	B	0	M1
TTP	75	0	0	C	1	M1
TTP	75	0	1	B	0	M1
TTP	75	0	1	E	0	M1
TTP	75	96	0	C	1	M1
TTP	75	96	6	B	0	M1
TTP	75	96	7	B	0	M1
TTP	75	96	7	E	0	M1
TTP	75	192	0	C	1	M1
TTP	75	192	3	B	0	M1
TTP	75	192	4	B	0	M1
TTP	75	192	4	E	0	M1
BRK	75	288	1
BRK	75	288	6
STR	76	0	2
SUR	76	0	2	96	192	5
TAP	76	96	4
TAP	76	192	3
TAP	76	288	4
STR	77	0	4
SXL	77	0	4	96	192	0
TAP	77	96	2
TAP	77	192	3
TAP	77	288	2
STR	78	0	1
SXR	78	0	1	96	192	6
TAP	78	96	5
TAP	78	192	4
TAP	78	288	5
STR	79	0	5
SCR	79	0	5	96	48	0
TAP	79	48	4
TAP	79	96	5
STR	79	192	2
SCL	79	192	2	96	48	7
TAP	79	240	3
TAP	79	288	2
STR	80	0	5
SI_	80	0	5	96	192	1
TAP	80	96	4
TAP	80	192	7
TAP	80	288	2
STR	81	0	2
SI_	81	0	2	96	192	6
TAP	81	96	3
TAP	81	192	0
TAP	81	288	5
STR	82	0	7
SI_	82	0	7	96	192	3
TAP	82	96	0
TAP	82	192	5
TAP	82	288	2
TAP	83	0	2
TAP	83	0	3
TAP	83	48	2
TAP	83	48	3
TAP	83	96	1
TAP	83	96	4
TAP	83	144	1
TAP	83	144	4
TAP	83	192	0
TAP	83	192	5
TAP	83	240	0
TAP	83	240	5
STR	83	288	0
SI_	83	288	0	96	48	4
TAP	83	312	6
TAP	83	336	2
TAP	83	360	4
BRK	84	0	0

T_REC_TAP	471
T_REC_BRK	27
T_REC_XTP	4
T_REC_HLD	40
T_REC_XHO	0
T_REC_STR	77
T_REC_BST	3
T_REC_XST	2
T_REC_TTP	54
T_REC_THO	2
T_REC_SLD	88
T_REC_ALL	768
T_NUM_TAP	608
T_NUM_BRK	30
T_NUM_HLD	42
T_NUM_SLD	88
T_NUM_ALL	768
T_JUDGE_TAP	638
T_JUDGE_HLD	147
T_JUDGE_SLD	88
T_JUDGE_ALL	873
TTM_EACHPAIRS	114
TTM_SCR_TAP	304000
TTM_SCR_BRK	78000
TTM_SCR_HLD	42000
TTM_SCR_SLD	132000
TTM_SCR_ALL	556000
TTM_SCR_S	536450
TTM_SCR_SS	553000
TTM_RAT_ACV	10054

