VERSION	0.00.00	1.03.00
FES_MODE	0
BPM_DEF	150.000	150.000	150.000	150.000
MET_DEF	4	4
RESOLUTION	384
CLK_DEF	384
COMPATIBLE_CODE	MA2

BPM	0	0	150.000
MET	0	0	4	4

HLD	1	0	2	672
TAP	1	96	3
TAP	1	192	3
TAP	1	288	4
TAP	2	0	3
TAP	2	96	3
TAP	2	192	4
TAP	2	288	4
HLD	3	0	5	576
TAP	3	96	4
TAP	3	192	4
TAP	3	288	3
TAP	4	0	4
TAP	4	96	4
TAP	4	192	3
TAP	4	288	2
TAP	4	288	4
HLD	5	0	1	192
TAP	5	96	3
TAP	5	192	3
TAP	5	288	4
HLD	6	0	6	192
TAP	6	96	4
TAP	6	192	4
TAP	6	288	3
TAP	6	288	5
TAP	7	0	2
TAP	7	0	3
TAP	7	96	3
TAP	7	96	4
TAP	7	192	4
TAP	7	192	5
TAP	7	288	3
TAP	7	288	4
TTP	8	0	0	C	0	M1
TTP	8	0	1	B	0	M1
TTP	8	0	2	E	0	M1
TTP	8	0	6	B	0	M1
TTP	8	0	6	E	0	M1
HLD	9	0	3	192
STR	9	0	4
SI_	9	0	4	96	192	7
STR	10	0	3
SI_	10	0	3	96	192	0
HLD	10	0	4	192
HLD	11	0	3	192
STR	11	0	4
SCR	11	0	4	96	192	7
TAP	12	0	3
TAP	12	0	7
TAP	12	96	4
TAP	12	96	6
TAP	12	192	5
BRK	12	288	7
HLD	13	0	0	96
HLD	13	0	6	96
HLD	13	192	1	96
HLD	13	192	7	96
TAP	14	0	2
TAP	14	48	2
TAP	14	96	4
TAP	14	144	4
TAP	14	192	3
TAP	14	288	3
TAP	14	288	4
HLD	15	0	4	96
HLD	15	0	6	96
HLD	15	192	1	96
HLD	15	192	3	96
TTP	16	0	5	B	0	M1
TTP	16	0	6	B	0	M1
TTP	16	96	1	B	0	M1
TTP	16	96	2	B	0	M1
TTP	16	192	3	B	0	M1
TTP	16	192	4	B	0	M1
XTP	16	288	0
XTP	16	288	7
XTP	16	336	0
XTP	16	336	7
XST	17	0	0
SI_	17	0	0	96	48	3
XST	17	0	7
SI_	17	0	7	96	48	4
BRK	17	192	2
BRK	17	192	5
STR	18	0	2
SCR	18	0	2	96	96	5
TAP	18	192	6
TAP	18	288	6
STR	19	0	5
SCL	19	0	5	96	96	2
TAP	19	192	1
TAP	19	288	1
TAP	20	0	2
TAP	20	96	2
TAP	20	96	3
TAP	20	192	5
TAP	20	288	4
TAP	20	288	5
TAP	21	0	6
TAP	21	96	4
TAP	21	192	3
BRK	21	288	0
STR	22	0	6
SCL	22	0	6	96	96	3
TAP	22	192	2
TAP	22	288	2
STR	23	0	1
SCR	23	0	1	96	96	4
TAP	23	192	5
TAP	23	288	5
HLD	24	0	6	96
TAP	24	96	7
HLD	24	192	1	96
TAP	24	288	0
TAP	25	0	1
TAP	25	0	3
TAP	25	96	3
TAP	25	96	4
TAP	25	192	4
TAP	25	192	6
BRK	25	288	0
TAP	26	0	2
TAP	26	48	2
TAP	26	96	3
TAP	26	192	1
TAP	26	192	4
TAP	26	288	2
TAP	26	288	3
TAP	27	0	5
TAP	27	48	5
TAP	27	96	4
TAP	27	192	3
TAP	27	192	6
TAP	27	288	4
TAP	27	288	5
TAP	28	0	2
TAP	28	48	2
TAP	28	96	3
TAP	28	192	0
TAP	28	192	1
STR	28	288	0
SI_	28	288	0	96	96	4
HLD	28	288	7	96
TAP	29	192	5
XTP	29	288	4
XTP	29	288	5
TAP	30	0	6
TAP	30	48	6
TAP	30	96	7
TAP	30	192	0
TAP	30	192	5
TAP	30	288	6
TAP	30	288	7
TAP	31	0	1
TAP	31	48	1
TAP	31	96	0
TAP	31	192	2
TAP	31	192	7
TAP	31	288	0
TAP	31	288	1
TAP	32	0	2
TAP	32	48	2
TAP	32	96	3
TAP	32	192	3
TAP	32	192	4
TAP	32	288	4
TAP	32	288	5
XHO	33	0	3	96
XHO	33	0	6	96
TAP	33	192	5
TAP	33	240	5
TAP	33	288	4
TTP	34	0	0	C	1	M1
TTP	34	0	1	B	0	M1
TTP	34	0	6	B	0	M1
HLD	35	0	2	480
TAP	35	96	3
TAP	35	192	3
TAP	35	288	1
TAP	36	0	3
TAP	36	96	3
TAP	36	192	4
TAP	36	288	3
TAP	36	288	4
TTP	37	0	5	B	0	M1
TTP	37	96	7	B	0	M1
TTP	37	96	7	E	0	M1
TTP	37	192	1	B	0	M1
TTP	37	288	3	B	0	M1
TTP	37	288	3	E	0	M1
THO	38	0	0	192	C	0	M1
HLD	39	0	6	480
TAP	39	96	7
TAP	39	192	7
TAP	39	288	5
TAP	40	0	7
TAP	40	96	7
TAP	40	192	5
TAP	40	288	4
TAP	40	288	5
TAP	41	0	1
TAP	41	0	6
TAP	41	96	2
STR	41	96	3
SI_	41	96	3	96	96	6
SI_	41	96	3	96	96	7
BRK	42	0	0
BRK	42	0	5
STR	43	0	1
SI_	43	0	1	96	48	3
STR	43	96	7
SI_	43	96	7	96	48	5
STR	43	192	0
SI_	43	192	0	96	48	4
TAP	43	288	7
STR	44	0	6
SI_	44	0	6	96	48	4
STR	44	96	0
SI_	44	96	0	96	48	2
STR	44	192	7
SI_	44	192	7	96	48	3
TAP	44	288	0
STR	45	0	1
SI_	45	0	1	96	48	4
STR	45	96	7
SI_	45	96	7	96	48	5
TAP	45	192	0
TAP	45	288	2
XTP	46	0	2
XTP	46	0	3
XTP	46	96	4
XTP	46	96	5
BRK	46	192	0
BRK	46	192	7
BRK	46	240	1
BRK	46	240	6
BRK	46	288	2
BRK	46	288	5
STR	47	0	6
SI_	47	0	6	96	48	4
STR	47	96	0
SI_	47	96	0	96	48	2
STR	47	192	7
SI_	47	192	7	96	48	3
TAP	47	288	0
STR	48	0	1
SI_	48	0	1	96	48	3
STR	48	96	7
SI_	48	96	7	96	48	5
STR	48	192	0
SI_	48	192	0	96	48	4
TAP	48	288	7
STR	49	0	6
SI_	49	0	6	96	48	3
STR	49	96	0
SI_	49	96	0	96	48	2
TAP	49	192	7
TAP	49	288	5
XTP	50	0	4
XTP	50	0	5
XTP	50	96	2
XTP	50	96	3
XTP	50	192	0
XTP	50	192	7
BRK	50	288	1
BRK	50	288	6
TAP	51	0	2
TAP	51	0	5
TAP	51	48	2
TAP	51	48	5
TAP	51	96	2
HLD	51	96	5	192
TAP	51	192	4
TAP	51	240	4
TAP	51	288	4
XHO	52	0	4	264
TAP	52	0	6
TAP	52	96	5
HLD	52	192	3	72
TAP	53	0	1
TAP	53	0	6
TAP	53	48	1
TAP	53	48	6
HLD	53	96	1	192
TAP	53	96	6
TAP	53	192	3
TAP	53	240	3
HLD	53	288	3	288
TAP	54	0	1
TAP	54	96	2
TAP	54	192	4
BRK	54	288	7
TAP	55	0	6
TAP	55	48	6
TAP	55	96	4
TAP	55	96	6
TAP	55	192	1
TAP	55	240	1
TAP	55	288	1
STR	55	288	3
SUL	55	288	3	96	96	7
SUR	55	288	3	96	96	7
XHO	56	192	0	72
XHO	56	192	6	72
TAP	57	0	4
TAP	57	48	4
TAP	57	96	3
TAP	57	144	5
TAP	57	192	0
TAP	57	240	0
TAP	57	288	7
TAP	57	336	1
STR	58	0	1
SI_	58	0	1	96	48	5
BRK	58	192	0
BRK	58	192	6
TAP	59	0	2
TAP	59	0	3
TAP	59	48	1
TAP	59	96	0
TAP	59	96	7
TAP	59	192	4
TAP	59	192	5
TAP	59	240	6
TAP	59	288	0
TAP	59	288	7
STR	60	0	1
SI_	60	0	1	96	48	4
STR	60	96	5
SCR	60	96	5	96	96	2
BRK	60	192	3
TAP	61	0	2
TAP	61	48	2
TAP	61	96	3
TAP	61	144	1
TAP	61	192	6
TAP	61	240	6
TAP	61	288	7
TAP	61	336	5
STR	62	0	3
SI_	62	0	3	96	48	0
SI_	62	0	3	96	48	6
BRK	62	192	1
BRK	62	192	5
TAP	63	0	4
TAP	63	0	6
TAP	63	48	7
TAP	63	96	0
TAP	63	96	1
TAP	63	192	1
TAP	63	192	3
TAP	63	240	0
TAP	63	288	6
TAP	63	288	7
STR	64	0	5
SI_	64	0	5	96	48	0
STR	64	96	1
SCR	64	96	1	96	96	6
BRK	64	192	7
TAP	65	0	1
TAP	65	48	1
TAP	65	96	1
TAP	65	96	7
TAP	65	192	6
TAP	65	240	6
TAP	65	288	0
TAP	65	288	6
TTP	66	0	1	B	0	M1
TTP	66	0	2	E	0	M1
TTP	66	96	6	B	0	M1
TTP	66	96	6	E	0	M1
TTP	66	192	3	B	0	M1
TTP	66	192	4	B	0	M1
TTP	66	192	4	E	0	M1
TAP	66	288	0
TAP	66	288	7
TAP	66	336	0
TAP	66	336	7
STR	67	0	1
SI_	67	0	1	96	48	4
STR	67	0	6
SI_	67	0	6	96	48	3
BRK	67	192	2
BRK	67	192	7
TAP	68	0	5
TAP	68	48	5
TAP	68	96	4
TAP	68	192	4
TAP	68	192	6
TAP	68	288	6
TAP	68	288	7
HLD	69	0	6	72
HLD	69	72	5	72
HLD	69	144	4	72
TAP	69	216	3
XTP	69	288	3
XTP	69	288	4
TAP	70	0	2
TAP	70	48	2
TAP	70	96	3
TAP	70	192	1
TAP	70	192	3
STR	70	288	0
SSL	70	288	0	96	192	4
HLD	70	288	1	96
BRK	71	288	1
BRK	71	288	5
TAP	72	0	6
TAP	72	48	6
TAP	72	96	7
TAP	72	192	0
TAP	72	192	5
TAP	72	288	4
TAP	72	288	5
HLD	73	0	5	72
HLD	73	72	6	72
HLD	73	144	7	72
TAP	73	216	0
XTP	73	288	0
XTP	73	288	7
TAP	74	0	2
TAP	74	48	2
TAP	74	96	1
TAP	74	96	3
TAP	74	192	4
TAP	74	288	3
TAP	74	288	4
TAP	75	0	4
TAP	75	0	6
TAP	75	96	1
TAP	75	96	3
TAP	75	192	3
TAP	75	192	4
BRK	75	288	7
STR	76	0	1
SCR	76	0	1	96	96	4
TAP	76	192	5
TAP	76	288	5
STR	77	0	6
SCL	77	0	6	96	96	3
TAP	77	0	7
TAP	77	192	2
TAP	77	288	2
TAP	78	0	0
STR	78	0	1
SI_	78	0	1	96	96	5
TAP	78	192	6
TAP	78	288	6
XTP	79	0	0
XTP	79	0	5
TAP	79	192	2
TAP	79	192	3
TAP	79	288	3
TAP	79	288	4
TAP	80	0	4
STR	80	0	5
SCR	80	0	5	96	96	0
TAP	80	192	1
TAP	80	240	1
TAP	80	288	1
STR	81	0	2
SCL	81	0	2	96	96	7
TAP	81	0	3
TAP	81	192	5
TAP	81	240	5
TAP	81	288	5
TAP	82	0	3
STR	82	0	4
SI_	82	0	4	96	96	0
TAP	82	192	1
TAP	82	240	1
TAP	82	288	1
XHO	83	0	2	192
XTP	83	0	7
TTP	83	192	0	E	0	M1
TTP	83	288	0	C	0	M1
TTP	84	0	3	B	0	M1
TTP	84	0	3	E	0	M1
TTP	84	0	4	B	0	M1
TTP	84	0	5	E	0	M1

T_REC_TAP	271
T_REC_BRK	27
T_REC_XTP	23
T_REC_HLD	31
T_REC_XHO	6
T_REC_STR	41
T_REC_BST	0
T_REC_XST	2
T_REC_TTP	33
T_REC_THO	1
T_REC_SLD	46
T_REC_ALL	481
T_NUM_TAP	370
T_NUM_BRK	27
T_NUM_HLD	38
T_NUM_SLD	46
T_NUM_ALL	481
T_JUDGE_TAP	397
T_JUDGE_HLD	140
T_JUDGE_SLD	46
T_JUDGE_ALL	583
TTM_EACHPAIRS	102
TTM_SCR_TAP	185000
TTM_SCR_BRK	70200
TTM_SCR_HLD	38000
TTM_SCR_SLD	69000
TTM_SCR_ALL	362200
TTM_SCR_S	348750
TTM_SCR_SS	359500
TTM_RAT_ACV	10075

