VERSION	0.00.00	1.03.00
FES_MODE	0
BPM_DEF	150.000	150.000	150.000	150.000
MET_DEF	4	4
RESOLUTION	384
CLK_DEF	384
COMPATIBLE_CODE	MA2

BPM	0	0	150.000
MET	0	0	4	4

TAP	1	0	2
TAP	1	96	2
TAP	1	192	3
TAP	1	288	3
TAP	2	0	4
TAP	2	96	4
TAP	2	192	3
TAP	2	192	4
TAP	3	0	5
TAP	3	96	5
TAP	3	192	4
TAP	3	288	4
TAP	4	0	3
TAP	4	96	3
TAP	4	192	2
TAP	4	192	4
TAP	5	0	1
TAP	5	96	1
TAP	5	192	0
TAP	5	288	0
TAP	6	0	7
TAP	6	96	7
TAP	6	192	0
TAP	6	192	6
TAP	7	0	7
TAP	7	96	7
TAP	7	192	0
TAP	7	288	0
BRK	8	0	1
BRK	8	0	6
XST	9	0	0
SI_	9	0	0	96	192	3
XST	10	0	4
SI_	10	0	4	96	192	7
XST	11	0	0
SI_	11	0	0	96	192	4
XTP	12	0	5
XTP	12	96	5
XTP	12	192	4
XTP	12	192	5
XST	13	0	6
SI_	13	0	6	96	192	2
XST	14	0	1
SI_	14	0	1	96	192	5
XTP	15	0	6
TAP	15	96	6
TAP	15	192	7
TAP	15	288	7
TAP	16	0	0
TAP	16	0	7
TAP	16	96	0
TAP	16	96	7
BRK	16	192	1
BRK	16	192	6
TAP	17	0	3
TAP	17	0	4
TAP	17	96	3
TAP	17	96	4
BRK	17	192	2
BRK	17	192	5
HLD	18	0	1	192
HLD	18	192	2	192
TAP	19	0	3
TAP	19	96	3
TAP	19	192	3
TAP	19	192	4
HLD	20	0	6	192
HLD	20	192	5	192
TAP	21	0	4
TAP	21	96	4
XTP	21	192	3
XTP	21	192	5
HLD	22	0	5	192
HLD	22	192	6	192
TAP	23	0	7
TAP	23	96	7
TAP	23	192	0
TAP	23	192	7
TAP	24	0	1
TAP	24	96	0
TAP	24	192	7
TAP	24	288	6
XTP	25	0	0
XTP	25	0	7
XTP	25	96	0
XTP	25	96	7
XTP	25	192	1
XTP	25	192	6
TAP	26	0	2
TAP	26	96	2
TAP	26	192	3
TAP	26	288	3
TAP	27	0	4
TAP	27	0	5
TAP	27	192	3
TAP	27	192	6
TAP	28	0	6
TAP	28	96	6
TAP	28	192	7
TAP	28	288	7
TAP	29	0	0
TAP	29	0	7
XTP	29	192	1
XTP	29	192	6
TAP	30	0	2
TAP	30	96	2
TAP	30	192	1
TAP	30	288	1
TAP	31	0	0
TAP	31	0	1
TAP	31	96	0
TAP	31	96	1
TAP	31	192	0
TAP	31	192	1
TAP	32	0	6
TAP	32	96	6
TAP	32	192	5
TAP	32	288	5
TAP	33	0	4
TAP	33	0	5
TAP	33	96	4
TAP	33	96	5
XTP	33	192	3
XTP	33	192	6
TTP	34	0	0	C	1	L1
TTP	35	0	4	B	0	L1
TTP	35	0	5	B	0	L1
TTP	35	192	2	B	0	L1
TTP	35	192	3	B	0	L1
TTP	36	0	6	E	0	L1
TTP	36	96	6	B	0	L1
TTP	36	192	7	B	0	L1
TTP	37	0	1	B	0	L1
TTP	37	0	2	B	0	L1
TTP	37	192	5	B	0	L1
TTP	37	192	6	B	0	L1
THO	38	0	0	192	C	0	L1
TTP	39	0	6	E	0	L1
TTP	39	96	5	B	0	L1
TTP	39	192	4	B	0	L1
TTP	40	0	2	E	0	L1
TTP	40	96	2	B	0	L1
TTP	40	192	3	B	0	L1
TTP	41	0	3	E	0	L1
TTP	41	0	5	E	0	L1
TTP	41	192	2	E	0	L1
TTP	41	192	6	E	0	L1
TTP	42	0	0	C	1	L1
TTP	42	0	1	B	0	L1
TTP	42	0	6	B	0	L1
TAP	43	0	2
TAP	43	96	3
TAP	43	192	3
TAP	43	192	4
TAP	43	288	3
TAP	43	288	4
TAP	44	0	5
TAP	44	96	6
TAP	44	192	6
TAP	44	192	7
TAP	44	288	6
TAP	44	288	7
TAP	45	0	0
TAP	45	96	1
TAP	45	192	0
TAP	45	192	1
TAP	45	288	0
TAP	45	288	1
HLD	46	0	2	96
HLD	46	0	7	96
XTP	46	192	2
XTP	46	192	7
TAP	47	0	1
TAP	47	96	0
TAP	47	192	0
TAP	47	192	7
TAP	47	288	0
TAP	47	288	7
TAP	48	0	6
TAP	48	96	5
TAP	48	192	4
TAP	48	192	5
TAP	48	288	4
TAP	48	288	5
TAP	49	0	3
TAP	49	96	2
TAP	49	192	1
TAP	49	192	4
TAP	49	288	1
TAP	49	288	4
TAP	50	0	2
TAP	50	0	3
TAP	50	96	4
TAP	50	96	5
XTP	50	192	3
XTP	50	192	6
HLD	51	0	4	192
HLD	51	0	5	192
HLD	52	0	2	192
HLD	52	0	3	192
HLD	53	0	0	192
HLD	53	0	1	192
TAP	54	0	6
TAP	54	0	7
TAP	54	96	6
TAP	54	96	7
XTP	54	192	0
XTP	54	192	5
HLD	55	0	6	192
HLD	55	0	7	192
HLD	56	0	4	192
HLD	56	0	5	192
TAP	57	0	3
TAP	57	96	3
TAP	57	192	4
TAP	57	288	4
TAP	58	0	3
TAP	58	0	4
TAP	58	96	2
TAP	58	96	5
BRK	58	192	1
BRK	58	192	6
TAP	59	0	0
TAP	59	0	1
TAP	59	96	2
TAP	59	96	7
TAP	59	192	6
TAP	59	192	7
TAP	59	288	0
TAP	59	288	5
TAP	60	0	0
TAP	60	0	1
TAP	60	96	2
TAP	60	96	7
XTP	60	192	3
XTP	60	192	6
TAP	61	0	6
TAP	61	48	6
TAP	61	96	6
TAP	61	192	0
TAP	61	240	0
TAP	61	288	0
TAP	62	0	7
TAP	62	96	6
XTP	62	192	0
XTP	62	192	5
TAP	63	0	4
TAP	63	0	5
TAP	63	96	3
TAP	63	96	6
TAP	63	192	2
TAP	63	192	3
TAP	63	288	1
TAP	63	288	4
TAP	64	0	4
TAP	64	0	5
TAP	64	96	3
TAP	64	96	6
XTP	64	192	2
XTP	64	192	7
TAP	65	0	1
TAP	65	48	1
TAP	65	96	1
TAP	65	192	7
TAP	65	240	7
TAP	65	288	7
TAP	66	0	0
TAP	66	0	1
TAP	66	96	2
TAP	66	96	7
BRK	66	192	3
BRK	66	192	6
TAP	67	0	6
TAP	67	0	7
TAP	67	96	0
TAP	67	96	5
BRK	67	192	1
BRK	67	192	4
TAP	68	0	1
TAP	68	96	1
HLD	68	192	1	192
TAP	69	0	0
TAP	69	96	0
TAP	69	192	1
TAP	69	192	7
TAP	70	0	6
TAP	70	96	6
HLD	70	192	6	192
TAP	71	0	7
TAP	71	96	7
XTP	71	192	0
XTP	71	192	6
TAP	72	0	5
TAP	72	96	5
HLD	72	192	5	192
TAP	73	0	4
TAP	73	96	4
TAP	73	192	3
TAP	73	192	6
HLD	74	0	2	96
HLD	74	0	3	96
HLD	74	192	4	96
HLD	74	192	5	96
TAP	75	0	3
TAP	75	0	4
TAP	75	96	2
TAP	75	96	5
XTP	75	192	1
XTP	75	192	6
STR	76	0	0
SCR	76	0	0	96	192	3
STR	77	0	4
SCR	77	0	4	96	192	7
STR	78	0	0
SI_	78	0	0	96	192	4
TAP	79	0	5
TAP	79	96	5
XTP	79	192	4
XTP	79	192	6
STR	80	0	5
SCL	80	0	5	96	192	2
STR	81	0	1
SI_	81	0	1	96	192	5
STR	82	0	6
SI_	82	0	6	96	192	2
STR	83	0	0
SI_	83	0	0	96	192	4
TAP	84	0	3
TAP	84	0	5

T_REC_TAP	207
T_REC_BRK	12
T_REC_XTP	35
T_REC_HLD	25
T_REC_XHO	0
T_REC_STR	7
T_REC_BST	0
T_REC_XST	5
T_REC_TTP	25
T_REC_THO	1
T_REC_SLD	12
T_REC_ALL	329
T_NUM_TAP	279
T_NUM_BRK	12
T_NUM_HLD	26
T_NUM_SLD	12
T_NUM_ALL	329
T_JUDGE_TAP	291
T_JUDGE_HLD	92
T_JUDGE_SLD	12
T_JUDGE_ALL	395
TTM_EACHPAIRS	86
TTM_SCR_TAP	139500
TTM_SCR_BRK	31200
TTM_SCR_HLD	26000
TTM_SCR_SLD	18000
TTM_SCR_ALL	214700
TTM_SCR_S	207100
TTM_SCR_SS	213500
TTM_RAT_ACV	10056

