VERSION	0.00.00	1.03.00
FES_MODE	0
BPM_DEF	150.000	150.000	150.000	150.000
MET_DEF	4	4
RESOLUTION	384
CLK_DEF	384
COMPATIBLE_CODE	MA2

BPM	0	0	150.000
MET	0	0	4	4

TAP	5	0	3
TAP	5	192	3
TAP	6	0	4
TAP	6	192	4
TAP	7	0	3
TAP	7	192	4
BRK	8	0	3
BRK	8	0	4
TAP	9	0	2
TAP	10	0	2
TAP	11	0	1
TAP	11	192	1
TAP	12	0	1
TAP	12	96	1
TAP	12	192	1
TAP	13	0	0
TAP	13	192	0
TAP	14	0	7
TAP	14	96	7
TAP	14	192	7
TAP	15	0	0
TAP	15	0	7
TAP	15	192	0
TAP	15	192	7
TAP	16	0	0
TAP	16	96	0
BRK	16	192	0
TAP	17	0	7
TAP	17	96	7
BRK	17	192	7
TAP	18	0	6
TAP	18	192	6
TAP	19	0	5
TAP	19	192	5
TAP	20	0	4
TAP	20	192	4
TAP	21	0	3
TAP	21	96	3
TAP	21	192	3
TAP	22	0	2
TAP	22	192	2
TAP	23	0	1
TAP	23	192	1
TAP	24	0	0
TAP	24	192	0
HLD	25	0	0	288
HLD	25	0	7	288
TAP	26	0	0
TAP	26	192	0
TAP	27	0	1
TAP	27	192	1
TAP	28	0	2
TAP	28	192	2
TAP	29	0	3
TAP	29	0	4
TAP	29	192	3
TAP	29	192	4
TAP	30	0	4
TAP	30	192	4
TAP	31	0	5
TAP	31	192	5
TAP	32	0	6
TAP	32	192	6
TAP	33	0	0
TAP	33	0	7
TAP	33	192	0
TAP	33	192	7
XTP	34	0	1
XTP	34	0	6
TAP	35	0	5
TAP	35	192	5
TAP	36	0	5
TAP	36	96	5
TAP	36	192	5
TAP	37	0	4
TAP	37	192	4
TAP	38	0	4
TAP	38	96	4
TAP	38	192	4
TAP	39	0	3
TAP	39	192	3
TAP	40	0	3
TAP	40	96	3
TAP	40	192	3
TAP	41	0	2
TAP	41	192	2
BRK	42	0	2
BRK	42	0	3
TTP	43	0	3	B	0	L1
TTP	43	192	4	B	0	L1
TTP	44	0	2	B	0	L1
TTP	44	192	5	B	0	L1
TTP	45	0	3	B	0	L1
TTP	45	192	4	B	0	L1
TTP	46	0	0	C	0	L1
TTP	47	0	7	B	0	L1
TTP	47	192	0	B	0	L1
TTP	48	0	6	B	0	L1
TTP	48	192	1	B	0	L1
TTP	49	0	7	B	0	L1
TTP	49	192	0	B	0	L1
TTP	50	0	0	C	1	L1
TAP	51	0	0
TAP	51	0	1
TAP	52	0	6
TAP	52	0	7
TAP	53	0	0
TAP	53	0	1
TAP	53	192	0
TAP	53	192	1
XTP	54	0	6
XTP	54	0	7
XTP	54	96	6
XTP	54	96	7
XTP	54	192	6
XTP	54	192	7
TAP	55	0	5
TAP	55	96	5
TAP	55	192	5
TAP	56	0	4
TAP	56	96	4
TAP	56	192	4
TAP	57	0	2
TAP	57	0	3
TAP	57	192	4
TAP	57	192	5
TAP	58	0	2
TAP	58	0	3
TAP	58	96	2
TAP	58	96	3
BRK	58	192	2
BRK	58	192	3
TAP	59	0	4
TAP	59	96	4
TAP	59	192	4
TAP	60	0	5
TAP	60	96	5
TAP	60	192	4
TAP	60	192	5
TAP	61	0	6
TAP	61	96	6
TAP	61	192	7
TAP	61	288	7
TAP	62	0	0
TAP	62	96	7
TAP	62	192	0
TAP	63	0	1
TAP	63	96	1
TAP	63	192	1
TAP	64	0	2
TAP	64	96	2
TAP	64	192	2
TAP	64	192	3
TAP	65	0	2
TAP	65	0	3
TAP	65	192	4
TAP	65	192	5
TAP	66	0	2
TAP	66	0	3
TAP	66	96	2
TAP	66	96	3
BRK	66	192	2
BRK	66	192	3
TAP	67	0	4
TAP	67	0	5
TAP	67	96	4
TAP	67	96	5
BRK	67	192	4
BRK	67	192	5
STR	68	0	6
SI_	68	0	6	96	288	2
STR	70	0	1
SI_	70	0	1	96	288	5
TAP	72	0	4
TAP	72	96	4
TAP	72	192	4
HLD	73	0	3	192
HLD	73	0	5	192
TAP	74	0	3
TAP	74	96	3
TAP	74	192	3
HLD	75	0	2	288
HLD	75	0	4	288
TAP	76	0	2
TAP	76	96	2
TAP	76	192	2
TAP	77	0	3
TAP	77	96	3
TAP	77	192	3
TAP	78	0	4
TAP	78	96	4
TAP	78	192	4
TAP	79	0	5
TAP	79	96	5
XTP	79	192	4
XTP	79	192	5
TAP	80	0	5
TAP	80	96	5
TAP	80	192	5
TAP	81	0	4
TAP	81	96	4
TAP	81	192	4
TAP	82	0	3
TAP	82	96	3
TAP	82	192	3
TAP	83	0	2
TAP	83	96	2
XTP	83	192	2
XTP	83	192	3
BRK	84	0	3
BRK	84	0	4

T_REC_TAP	161
T_REC_BRK	14
T_REC_XTP	12
T_REC_HLD	6
T_REC_XHO	0
T_REC_STR	2
T_REC_BST	0
T_REC_XST	0
T_REC_TTP	14
T_REC_THO	0
T_REC_SLD	2
T_REC_ALL	211
T_NUM_TAP	189
T_NUM_BRK	14
T_NUM_HLD	6
T_NUM_SLD	2
T_NUM_ALL	211
T_JUDGE_TAP	203
T_JUDGE_HLD	32
T_JUDGE_SLD	2
T_JUDGE_ALL	237
TTM_EACHPAIRS	37
TTM_SCR_TAP	94500
TTM_SCR_BRK	36400
TTM_SCR_HLD	6000
TTM_SCR_SLD	3000
TTM_SCR_ALL	139900
TTM_SCR_S	134350
TTM_SCR_SS	138500
TTM_RAT_ACV	10101

