VERSION	0.00.00	1.03.00
FES_MODE	0
BPM_DEF	192.000	192.000	192.000	192.000
MET_DEF	4	4
RESOLUTION	384
CLK_DEF	384
COMPATIBLE_CODE	MA2

BPM	0	0	192.000
MET	0	0	4	4
MET	38	0	4	3
MET	48	192	4	4

STR	1	0	2
SI_	1	0	2	96	48	0
HLD	1	0	4	96
STR	1	192	2
SI_	1	192	2	96	48	0
HLD	1	192	4	96
TAP	2	0	2
TAP	2	0	4
STR	2	48	2
SCR	2	48	2	96	144	5
TAP	2	48	4
HLD	3	0	3	96
STR	3	0	5
SI_	3	0	5	96	48	7
HLD	3	192	3	96
STR	3	192	5
SI_	3	192	5	96	48	7
TAP	4	0	3
TAP	4	0	5
TAP	4	48	3
STR	4	48	5
SCL	4	48	5	96	144	2
STR	5	0	2
SI_	5	0	2	96	48	0
STR	5	0	5
SI_	5	0	5	96	48	7
STR	5	192	2
SI_	5	192	2	96	48	0
STR	5	192	5
SI_	5	192	5	96	48	7
TAP	6	0	2
TAP	6	48	5
TAP	6	96	2
TAP	6	144	3
TAP	6	144	4
TAP	6	240	3
TAP	6	240	4
TAP	6	288	1
TAP	6	288	6
HLD	7	0	1	96
HLD	7	96	2	96
HLD	7	192	3	96
HLD	7	288	4	240
TAP	8	0	5
STR	8	48	5
SCR	8	48	5	96	192	2
TAP	8	96	5
BRK	8	144	5
TTP	9	48	3	E	0	M1
TTP	9	96	2	E	0	M1
TTP	9	144	1	E	0	M1
TTP	9	192	0	E	0	M1
TTP	9	240	7	E	0	M1
TTP	9	288	6	E	0	M1
TAP	10	0	2
STR	10	0	3
SI_	10	0	3	96	48	7
TAP	10	96	2
STR	10	192	3
SI_	10	192	3	96	48	7
TAP	10	192	4
TAP	10	288	4
TAP	11	0	2
STR	11	0	3
SI_	11	0	3	96	48	7
TAP	11	96	2
STR	11	192	3
SI_	11	192	3	96	48	7
TAP	11	192	4
TAP	11	288	4
TAP	12	0	2
STR	12	0	3
SI_	12	0	3	96	48	7
TAP	12	96	2
STR	12	192	3
SI_	12	192	3	96	48	7
TAP	12	192	4
TAP	12	288	4
TAP	13	0	2
STR	13	0	3
SI_	13	0	3	96	48	7
TAP	13	96	2
TAP	13	192	4
TAP	13	240	3
TAP	13	288	2
TAP	13	288	6
STR	14	0	4
SI_	14	0	4	96	48	0
TAP	14	0	5
TAP	14	96	5
TAP	14	192	3
STR	14	192	4
SI_	14	192	4	96	48	0
TAP	14	288	3
STR	15	0	4
SI_	15	0	4	96	48	0
TAP	15	0	5
TAP	15	96	5
TAP	15	192	3
STR	15	192	4
SI_	15	192	4	96	48	0
TAP	15	288	3
STR	16	0	4
SI_	16	0	4	96	48	0
TAP	16	0	5
TAP	16	96	5
TAP	16	192	3
STR	16	192	4
SI_	16	192	4	96	48	0
TAP	16	288	3
TAP	17	0	2
TAP	17	0	5
TAP	17	48	2
TAP	17	48	5
TAP	17	96	2
TAP	17	96	5
TAP	17	192	1
TAP	17	192	4
TAP	17	240	2
TAP	17	264	3
TAP	17	288	2
STR	17	336	2
SXR	17	336	2	96	240	7
STR	17	336	3
SXL	17	336	3	96	240	6
TAP	19	0	2
TAP	19	0	3
TAP	19	96	3
TAP	19	96	5
HLD	19	144	3	144
HLD	19	144	5	144
TAP	20	0	4
HLD	20	0	6	384
TAP	20	96	5
TAP	20	144	5
TAP	20	240	7
TAP	20	288	7
HLD	21	0	4	288
TTP	21	96	7	E	0	M1
TTP	21	144	6	E	0	M1
TTP	21	192	5	E	0	M1
TAP	21	288	7
TAP	22	0	4
HLD	22	0	6	384
TAP	22	96	5
TAP	22	144	5
TAP	22	240	7
TAP	22	288	7
HLD	23	0	4	288
TTP	23	96	5	E	0	M1
TTP	23	144	6	E	0	M1
TTP	23	192	7	E	0	M1
TAP	23	288	7
TAP	24	0	3
TAP	24	0	6
TAP	24	48	3
TAP	24	48	6
STR	24	96	3
SI_	24	96	3	96	48	6
TAP	24	96	6
TAP	24	288	5
TAP	24	288	7
TAP	25	0	0
TAP	25	0	5
TAP	25	48	0
TAP	25	48	5
STR	25	96	0
SI_	25	96	0	96	48	5
TAP	25	96	5
TAP	25	288	4
TAP	25	288	6
TAP	26	0	5
TAP	26	48	5
TAP	26	96	4
TAP	26	192	2
TAP	26	240	2
TAP	26	288	3
TAP	27	0	6
TAP	27	48	6
TAP	27	96	4
TAP	27	192	1
TAP	27	240	1
TAP	27	288	3
TAP	28	0	2
STR	28	0	5
SCL	28	0	5	96	96	2
BRK	28	240	0
BRK	28	288	0
BRK	28	336	0
HLD	29	0	1	384
TAP	29	0	3
TAP	29	96	2
TAP	29	144	2
TAP	29	240	0
TAP	29	288	0
HLD	30	0	3	96
HLD	30	96	0	192
TTP	30	192	0	E	0	M1
TTP	30	288	0	E	0	M1
HLD	31	0	1	384
TAP	31	0	3
TAP	31	96	2
TAP	31	144	2
TAP	31	240	0
TAP	31	288	0
HLD	32	0	3	96
HLD	32	96	0	144
TTP	32	192	2	E	0	M1
TTP	32	240	1	E	0	M1
TAP	33	0	1
TAP	33	48	2
TAP	33	96	3
TAP	33	144	1
TAP	33	192	2
TAP	33	240	3
TAP	33	288	1
TAP	34	0	0
TAP	34	48	1
TAP	34	96	2
TAP	34	144	0
TAP	34	192	1
TAP	34	240	2
TAP	34	288	0
HLD	35	0	5	144
TAP	35	96	3
TAP	35	144	3
TAP	35	168	4
HLD	35	192	2	144
TAP	35	288	4
TAP	35	336	4
TAP	35	360	3
STR	36	0	5
SF_	36	0	5	96	144	1
STR	37	0	1
SXR	37	0	1	96	96	0
HLD	37	0	5	192
STR	37	288	6
SCL	37	288	6	96	144	2
TAP	38	0	1
TAP	38	96	1
STR	38	192	1
SCR	38	192	1	96	144	5
TAP	38	288	6
TAP	39	0	6
STR	39	96	6
SCL	39	96	6	96	144	2
TAP	39	192	0
TAP	39	288	0
STR	40	0	0
SCR	40	0	0	96	144	4
TAP	40	96	5
TAP	40	192	5
STR	40	288	5
SCL	40	288	5	96	144	1
TAP	41	0	7
TAP	41	96	7
STR	41	192	7
SCR	41	192	7	96	144	3
TAP	41	288	4
TAP	42	0	4
STR	42	96	4
SCL	42	96	4	96	288	5
HLD	42	192	0	288
TAP	43	192	1
TAP	43	192	3
STR	43	288	1
SCR	43	288	1	96	144	5
TAP	43	288	3
TAP	44	0	6
TAP	44	96	6
STR	44	192	6
SCL	44	192	6	96	144	2
TAP	44	288	1
TAP	45	0	1
STR	45	96	1
SCR	45	96	1	96	144	5
TAP	45	192	7
TAP	45	288	7
STR	46	0	7
SI_	46	0	7	96	48	3
XTP	46	96	7
XHO	46	192	0	672
XHO	46	192	4	672
STR	48	192	2
SUL	48	192	2	96	192	4
HLD	48	192	3	672
TAP	49	192	4
TAP	49	288	4
TAP	50	0	2
TAP	50	96	2
HLD	50	192	4	672
STR	50	192	5
SUR	50	192	5	96	192	3
TAP	51	192	3
TAP	51	288	3
TAP	52	0	5
TAP	52	96	5
TAP	52	192	4
TAP	52	192	5
TAP	52	288	3
TAP	52	288	6
TAP	53	0	2
TAP	53	0	3
TAP	53	96	1
TAP	53	96	4
TAP	53	192	4
TAP	53	192	5
TAP	53	288	3
TAP	53	288	7
TAP	54	0	2
TAP	54	0	3
TAP	54	96	0
TAP	54	96	4
TAP	54	192	0
HLD	54	192	6	96
TAP	54	240	0
TAP	54	288	0
TAP	54	336	0
TAP	55	0	0
HLD	55	0	5	96
TAP	55	48	0
STR	55	96	0
SI_	55	96	0	96	48	4
XTP	55	192	0
STR	55	192	4
SF_	55	192	4	96	96	0
TTP	55	336	0	C	1	M1
TAP	56	192	5
TAP	56	288	5
TAP	57	0	5
STR	57	96	3
SI_	57	96	3	96	48	0
STR	57	96	4
SI_	57	96	4	96	48	7
XTP	57	192	3
XTP	57	192	4
TAP	57	288	1
TAP	57	288	6
TAP	57	336	5
TAP	58	0	2
TAP	58	0	4
TAP	58	48	1
TAP	58	72	3
TAP	58	96	1
STR	58	144	2
SUL	58	144	2	96	48	6
TAP	58	144	3
TAP	58	240	4
HLD	58	288	4	96
TAP	59	0	3
TAP	59	96	0
TAP	59	96	1
STR	59	192	3
SI_	59	192	3	96	48	7
TAP	59	192	5
TAP	59	288	4
TAP	60	0	1
STR	60	0	3
SI_	60	0	3	96	48	7
TAP	60	96	2
STR	60	192	3
SI_	60	192	3	96	48	7
TAP	60	192	5
TAP	60	288	4
TTP	61	0	2	B	0	M1
TTP	61	0	2	E	0	M1
TTP	61	0	3	B	0	M1
TTP	61	0	3	E	0	M1
TTP	61	0	4	E	0	M1
STR	61	96	0
SI_	61	96	0	96	48	3
STR	61	96	7
SI_	61	96	7	96	48	4
XTP	61	192	0
XTP	61	192	7
TAP	61	288	1
TAP	61	288	6
TAP	61	336	2
TAP	62	0	3
TAP	62	0	5
TAP	62	48	6
TAP	62	72	4
TAP	62	96	6
TAP	62	144	4
STR	62	144	5
SUR	62	144	5	96	48	1
TAP	62	240	3
HLD	62	288	3	96
TAP	63	0	4
TAP	63	96	6
TAP	63	96	7
TAP	63	192	2
STR	63	192	4
SI_	63	192	4	96	48	0
TAP	63	288	3
STR	64	0	4
SI_	64	0	4	96	48	0
TAP	64	0	6
TAP	64	96	5
TAP	64	192	2
STR	64	192	4
SI_	64	192	4	96	48	0
TAP	64	288	3
TAP	65	0	4
TAP	65	0	6
BRK	65	96	0
BRK	65	96	7
TAP	65	192	3
TAP	65	192	4
TAP	65	288	1
TAP	65	288	6
TAP	65	336	5
TAP	66	0	2
TAP	66	0	4
TAP	66	48	1
TAP	66	72	3
TAP	66	96	1
STR	66	144	2
SCL	66	144	2	96	48	6
TAP	66	144	3
TAP	66	240	4
HLD	66	288	4	96
TAP	67	0	3
TAP	67	96	0
TAP	67	96	1
STR	67	192	3
SI_	67	192	3	96	48	7
TAP	67	192	5
TAP	67	288	4
TAP	68	0	1
STR	68	0	3
SI_	68	0	3	96	48	7
TAP	68	96	2
STR	68	192	3
SI_	68	192	3	96	48	7
TAP	68	192	5
TAP	68	288	4
TAP	69	0	1
TAP	69	0	3
BRK	69	96	0
BRK	69	96	7
TAP	69	192	3
TAP	69	192	4
TAP	69	288	1
TAP	69	288	6
TAP	69	336	2
TAP	70	0	3
TAP	70	0	5
TAP	70	48	6
TAP	70	72	4
TAP	70	96	6
TAP	70	144	4
STR	70	144	5
SCR	70	144	5	96	48	1
TAP	70	240	3
HLD	70	288	3	96
TAP	71	0	4
TAP	71	96	1
TAP	71	96	6
TAP	71	192	2
TAP	71	216	3
TAP	71	240	2
TAP	71	264	3
TAP	71	288	2
TAP	71	336	1
TAP	72	0	5
TAP	72	24	4
TAP	72	48	5
TAP	72	72	4
TAP	72	96	5
TAP	72	144	6
HLD	72	192	1	96
HLD	72	288	3	96
HLD	73	0	4	96
HLD	73	96	6	96
THO	73	192	0	192	C	0	M1
TTP	74	0	5	B	0	M1
TTP	74	0	6	B	0	M1
TTP	74	0	6	E	0	M1
TAP	74	192	1
TAP	74	240	1
TAP	74	288	6
TAP	74	336	6
STR	75	0	6
SI_	75	0	6	96	48	3
STR	75	0	7
SI_	75	0	7	96	48	2
XTP	75	96	6
XTP	75	96	7
TAP	75	192	2
STR	75	192	4
SI_	75	192	4	96	48	1
XTP	75	288	3
STR	76	0	4
SI_	76	0	4	96	48	7
TAP	76	0	6
XTP	76	96	5
TAP	76	192	2
STR	76	192	4
SI_	76	192	4	96	48	1
XTP	76	288	3
BRK	77	0	0
BRK	77	0	6
BRK	77	48	0
BRK	77	48	6
BRK	77	96	0
BRK	77	96	6
STR	77	192	2
SCL	77	192	2	96	48	7
STR	77	192	3
SUL	77	192	3	96	48	6
STR	78	0	4
SUR	78	0	4	96	48	1
STR	78	0	5
SCR	78	0	5	96	48	0
TAP	78	192	2
TAP	78	240	5
TAP	78	288	3
TAP	78	288	4
TTP	79	0	1	B	0	M1
TTP	79	0	2	E	0	M1
TTP	79	0	6	B	0	M1
TTP	79	0	6	E	0	M1
BRK	79	96	0
BRK	79	96	7
STR	79	192	3
SI_	79	192	3	96	48	6
TAP	79	192	5
XTP	79	288	4
TAP	80	0	1
STR	80	0	3
SI_	80	0	3	96	48	0
XTP	80	96	2
STR	80	192	3
SI_	80	192	3	96	48	6
TAP	80	192	5
XTP	80	288	4
BRK	81	0	1
BRK	81	0	7
BRK	81	48	1
BRK	81	48	7
BRK	81	96	1
BRK	81	96	7
STR	81	192	3
SI_	81	192	3	96	48	0
STR	81	192	5
SI_	81	192	5	96	48	2
STR	82	0	7
SV_	82	0	7	96	48	1
SV_	82	0	7	96	48	5
TAP	82	192	3
TAP	82	192	4
STR	82	288	4
SI_	82	288	4	96	48	0
STR	82	288	6
SI_	82	288	6	96	48	2
XTP	83	0	4
XTP	83	0	6
TTP	83	24	0	C	1	M1
BRK	83	96	2
BRK	83	96	5
STR	83	192	1
SI_	83	192	1	96	48	5
TAP	83	192	6
XTP	83	288	7
TAP	84	0	1
STR	84	0	6
SI_	84	0	6	96	48	2
XTP	84	96	0
STR	84	192	1
SI_	84	192	1	96	48	5
TAP	84	192	6
XTP	84	288	7
TAP	85	0	1
TAP	85	0	6
BRK	85	96	0
BRK	85	96	7
TAP	85	192	3
TAP	85	192	4
TAP	85	288	1
TAP	85	288	6
TAP	85	336	5
TAP	86	0	2
TAP	86	0	4
TAP	86	48	1
TAP	86	72	3
TAP	86	96	1
STR	86	144	2
SCL	86	144	2	96	48	6
TAP	86	144	3
TAP	86	240	4
HLD	86	288	4	96
STR	87	0	3
SI_	87	0	3	96	48	0
XTP	87	96	3
XTP	87	96	4
TAP	87	192	2
TAP	87	216	3
TAP	87	240	2
TAP	87	264	3
TAP	87	288	2
TAP	87	336	0
TAP	88	0	5
TAP	88	24	4
TAP	88	48	5
TAP	88	72	4
TAP	88	96	5
TAP	88	144	7
XST	88	192	3
SI_	88	192	3	96	48	7
XTP	88	288	3
XST	88	288	4
SI_	88	288	4	96	48	0
XST	89	0	2
SCL	89	0	2	96	48	7
XTP	89	0	4
XTP	89	96	2
XST	89	96	5
SCR	89	96	5	96	48	0
XST	89	192	3
SI_	89	192	3	96	48	7
XTP	89	192	5
XTP	89	288	3
XST	89	288	4
SI_	89	288	4	96	48	0
XST	90	0	2
SCL	90	0	2	96	48	7
XTP	90	0	4
XTP	90	96	2
XST	90	96	5
SCR	90	96	5	96	48	0
XST	90	192	3
SSL	90	192	3	96	480	7
XTP	90	192	5

T_REC_TAP	320
T_REC_BRK	26
T_REC_XTP	29
T_REC_HLD	37
T_REC_XHO	2
T_REC_STR	85
T_REC_BST	0
T_REC_XST	9
T_REC_TTP	30
T_REC_THO	1
T_REC_SLD	95
T_REC_ALL	634
T_NUM_TAP	473
T_NUM_BRK	26
T_NUM_HLD	40
T_NUM_SLD	95
T_NUM_ALL	634
T_JUDGE_TAP	499
T_JUDGE_HLD	178
T_JUDGE_SLD	95
T_JUDGE_ALL	772
TTM_EACHPAIRS	141
TTM_SCR_TAP	236500
TTM_SCR_BRK	67600
TTM_SCR_HLD	40000
TTM_SCR_SLD	142500
TTM_SCR_ALL	486600
TTM_SCR_S	469500
TTM_SCR_SS	484000
TTM_RAT_ACV	10053

