VERSION	0.00.00	1.03.00
FES_MODE	0
BPM_DEF	192.000	192.000	192.000	192.000
MET_DEF	4	4
RESOLUTION	384
CLK_DEF	384
COMPATIBLE_CODE	MA2

BPM	0	0	192.000
MET	0	0	4	4
MET	38	0	4	3
MET	48	192	4	4

HLD	1	0	3	96
HLD	1	0	5	96
HLD	1	192	1	96
HLD	1	192	4	96
STR	2	0	5
SCL	2	0	5	96	144	2
HLD	3	0	2	96
HLD	3	0	4	96
HLD	3	192	3	96
HLD	3	192	6	96
STR	4	0	2
SUL	4	0	2	96	144	5
HLD	5	0	2	96
HLD	5	0	5	96
HLD	5	192	2	96
HLD	5	192	5	96
TAP	6	0	0
TAP	6	0	7
TAP	6	96	1
TAP	6	96	6
TAP	6	192	2
TAP	6	192	5
TAP	6	288	3
TAP	6	288	4
TTP	7	0	5	B	0	M1
TTP	7	0	5	E	0	M1
TTP	7	96	1	B	0	M1
TTP	7	96	1	E	0	M1
TTP	7	192	6	B	0	M1
TTP	7	192	7	E	0	M1
TTP	7	288	2	B	0	M1
TTP	7	288	3	E	0	M1
THO	8	0	0	384	C	1	M1
TTP	9	0	0	E	0	M1
BRK	9	288	0
HLD	10	0	5	96
TAP	10	96	4
TAP	10	192	3
TAP	10	192	6
TAP	10	288	2
TAP	10	288	4
HLD	11	0	1	96
TAP	11	96	3
TAP	11	192	0
TAP	11	192	4
TAP	11	288	3
TAP	11	288	5
HLD	12	0	6	96
TAP	12	96	7
TAP	12	192	0
TAP	12	192	5
TAP	12	288	2
TAP	12	288	4
HLD	13	0	1	96
HLD	13	96	3	96
HLD	13	192	4	96
TAP	13	288	6
HLD	14	0	2	96
TAP	14	96	3
TAP	14	192	1
TAP	14	192	4
TAP	14	288	3
TAP	14	288	5
HLD	15	0	6	96
TAP	15	96	4
TAP	15	192	3
TAP	15	192	7
TAP	15	288	2
TAP	15	288	4
HLD	16	0	1	96
TAP	16	96	0
TAP	16	192	2
TAP	16	192	7
TAP	16	288	3
TAP	16	288	5
TAP	17	0	4
TAP	17	48	4
TAP	17	96	3
TAP	17	192	2
TAP	17	192	5
STR	17	288	3
SCL	17	288	3	96	384	6
STR	17	288	4
SUL	17	288	4	96	384	5
TAP	19	288	3
TAP	19	288	4
HLD	20	0	5	192
TAP	20	96	4
HLD	20	192	3	192
TAP	20	288	4
HLD	21	0	6	96
STR	21	96	5
SCL	21	96	5	96	96	2
HLD	22	0	2	192
TAP	22	96	3
HLD	22	192	4	192
TAP	22	288	3
HLD	23	0	1	96
STR	23	96	2
SCR	23	96	2	96	96	5
TAP	24	0	5
TAP	24	48	5
TAP	24	96	4
TAP	24	288	3
TAP	24	288	5
TAP	25	0	2
TAP	25	48	2
TAP	25	96	3
TAP	25	288	2
TAP	25	288	4
TAP	26	0	1
TAP	26	96	0
TAP	26	96	7
TAP	26	192	6
TAP	26	288	5
TAP	26	288	7
TAP	27	0	0
TAP	27	96	1
TAP	27	96	7
TAP	27	192	2
STR	27	288	3
SXL	27	288	3	96	192	4
TAP	27	288	5
HLD	29	0	2	192
TAP	29	96	3
HLD	29	192	4	192
TAP	29	288	3
HLD	30	0	1	96
TAP	30	96	3
TTP	30	192	0	B	0	M1
TTP	30	192	7	B	0	M1
TTP	30	288	3	B	0	M1
TTP	30	288	4	B	0	M1
HLD	31	0	5	192
TAP	31	96	4
HLD	31	192	3	192
TAP	31	288	4
HLD	32	0	6	96
TAP	32	96	4
HLD	32	192	3	48
HLD	32	192	5	48
TAP	33	0	2
TAP	33	48	2
TAP	33	96	3
TAP	33	192	0
TAP	33	288	2
TAP	33	288	4
TAP	34	0	5
TAP	34	48	5
TAP	34	96	4
TAP	34	192	7
TAP	34	288	3
TAP	34	288	5
TAP	35	0	6
TAP	35	96	1
TAP	35	96	7
TAP	35	192	2
TAP	35	288	3
STR	35	288	4
SUL	35	288	4	96	288	3
TTP	37	192	3	E	0	M1
TTP	37	192	4	E	0	M1
TTP	37	192	5	E	0	M1
HLD	38	0	5	288
TAP	38	192	4
HLD	38	288	2	288
TAP	39	96	3
HLD	39	192	5	288
TAP	40	0	3
HLD	40	96	1	288
TAP	40	288	4
HLD	41	0	6	288
TAP	41	192	3
HLD	41	288	1	288
TAP	42	96	3
STR	42	192	4
SCR	42	192	4	96	192	7
STR	43	96	0
SCR	43	96	0	96	192	3
HLD	44	0	5	288
TAP	44	192	4
HLD	44	288	2	288
TAP	45	96	3
HLD	45	192	4	288
TTP	46	96	4	E	0	M1
TTP	46	192	0	C	1	M1
TAP	48	96	0
HLD	48	192	0	576
TAP	49	0	4
TAP	49	192	2
TAP	49	288	3
TAP	50	0	4
TAP	50	96	0
HLD	50	192	7	576
TAP	51	0	3
TAP	51	192	5
TAP	51	288	4
TAP	52	0	3
TAP	52	96	7
HLD	52	192	1	192
TAP	52	288	3
HLD	53	0	6	192
TAP	53	96	4
HLD	53	192	1	192
TAP	53	288	2
HLD	54	0	6	192
TAP	54	96	5
TAP	54	192	1
TAP	54	288	0
TAP	54	288	7
TAP	55	0	1
TAP	55	0	6
TAP	55	96	3
TAP	55	96	4
TTP	55	192	3	E	0	M1
TTP	55	192	5	E	0	M1
TTP	55	288	0	C	1	M1
TTP	55	288	1	B	0	M1
TTP	55	288	6	B	0	M1
XTP	56	192	7
XTP	56	288	7
XTP	57	0	7
BRK	57	96	1
BRK	57	96	6
HLD	57	192	0	96
TAP	57	288	2
TAP	58	0	6
TAP	58	48	6
TAP	58	96	7
HLD	58	192	5	96
HLD	58	288	3	96
TAP	59	0	2
TAP	59	96	1
TAP	59	96	4
TAP	59	192	0
TAP	59	192	1
TAP	59	288	2
TAP	59	288	7
TAP	60	0	6
TAP	60	0	7
TAP	60	96	0
STR	60	96	5
SXL	60	96	5	96	288	3
TTP	61	96	1	B	0	M1
TTP	61	96	1	E	0	M1
HLD	61	192	7	96
TAP	61	288	5
TAP	62	0	1
TAP	62	48	1
TAP	62	96	0
HLD	62	192	2	96
HLD	62	288	4	96
TAP	63	0	5
TAP	63	96	3
TAP	63	96	6
TAP	63	192	6
TAP	63	192	7
TAP	63	288	0
TAP	63	288	5
TAP	64	0	0
TAP	64	0	1
STR	64	96	2
SXR	64	96	2	96	288	4
TAP	64	96	7
TTP	65	96	6	B	0	M1
TTP	65	96	7	E	0	M1
HLD	65	192	0	96
TAP	65	288	2
TAP	66	0	6
TAP	66	48	6
TAP	66	96	0
TAP	66	96	7
HLD	66	192	5	96
HLD	66	288	3	96
TAP	67	0	2
TAP	67	96	1
TAP	67	96	4
TAP	67	192	0
TAP	67	192	1
TAP	67	288	2
TAP	67	288	7
TAP	68	0	6
TAP	68	0	7
TAP	68	96	0
STR	68	96	5
SXR	68	96	5	96	288	6
TTP	69	96	0	B	0	M1
TTP	69	96	1	E	0	M1
HLD	69	192	7	96
TAP	69	288	5
XTP	70	0	2
XTP	70	0	6
XTP	70	96	1
XTP	70	96	5
HLD	70	192	2	96
HLD	70	288	4	96
TAP	71	0	5
TAP	71	96	3
TAP	71	96	6
TAP	71	192	6
TAP	71	192	7
TAP	71	288	0
TAP	71	288	5
TAP	72	0	0
TAP	72	0	1
TAP	72	96	2
TAP	72	96	7
TAP	72	192	4
TAP	72	192	5
TAP	72	288	6
TAP	72	288	7
TAP	73	0	0
TAP	73	0	1
STR	73	96	2
SCL	73	96	2	96	192	5
TAP	73	96	3
TAP	74	192	4
TAP	74	192	6
TAP	74	288	1
TAP	74	288	3
TAP	75	0	3
TAP	75	0	4
BRK	75	96	1
BRK	75	96	6
TAP	75	192	3
STR	75	192	5
SI_	75	192	5	96	48	7
STR	76	0	2
SI_	76	0	2	96	48	0
TAP	76	0	4
TAP	76	192	3
STR	76	192	5
SI_	76	192	5	96	48	7
TAP	77	0	0
TAP	77	48	0
XTP	77	96	1
XTP	77	96	7
HLD	77	192	2	96
HLD	77	192	4	96
HLD	78	0	3	96
HLD	78	0	6	96
TAP	78	192	2
TAP	78	240	2
TAP	78	288	3
TAP	79	0	1
TAP	79	0	4
BRK	79	96	7
STR	79	192	5
SI_	79	192	5	96	96	2
STR	80	0	1
SI_	80	0	1	96	96	5
HLD	80	192	6	96
TAP	80	288	0
TAP	81	0	4
TAP	81	48	4
TAP	81	96	3
TAP	81	96	5
BRK	81	192	0
BRK	82	0	1
BRK	82	0	6
TAP	82	192	5
TAP	82	240	5
TAP	82	288	4
TAP	83	0	3
TAP	83	0	6
BRK	83	96	0
STR	83	192	2
SI_	83	192	2	96	96	5
STR	84	0	6
SI_	84	0	6	96	96	2
HLD	84	192	1	96
TAP	84	288	7
TAP	85	0	3
TAP	85	48	3
TAP	85	96	2
TAP	85	96	4
STR	85	192	5
SCR	85	192	5	96	96	0
STR	86	0	1
SCR	86	0	1	96	96	4
TAP	86	192	6
TAP	86	240	6
TAP	86	288	7
TAP	87	0	4
TAP	87	0	5
TAP	87	96	3
TAP	87	96	6
HLD	87	192	2	96
HLD	87	288	0	96
HLD	88	0	7	96
TAP	88	96	5
TAP	88	192	4
TAP	88	192	5
TAP	88	288	6
TAP	88	288	7
TAP	89	0	0
TAP	89	0	1
TAP	89	96	2
TAP	89	96	3
TAP	89	192	4
TAP	89	192	5
TAP	89	288	6
TAP	89	288	7
TAP	90	0	0
TAP	90	0	1
STR	90	96	2
SCL	90	96	2	96	576	3
TAP	90	96	3
TTP	90	192	0	C	1	M1

T_REC_TAP	240
T_REC_BRK	10
T_REC_XTP	9
T_REC_HLD	71
T_REC_XHO	0
T_REC_STR	24
T_REC_BST	0
T_REC_XST	0
T_REC_TTP	30
T_REC_THO	1
T_REC_SLD	24
T_REC_ALL	409
T_NUM_TAP	303
T_NUM_BRK	10
T_NUM_HLD	72
T_NUM_SLD	24
T_NUM_ALL	409
T_JUDGE_TAP	313
T_JUDGE_HLD	228
T_JUDGE_SLD	24
T_JUDGE_ALL	565
TTM_EACHPAIRS	92
TTM_SCR_TAP	151500
TTM_SCR_BRK	26000
TTM_SCR_HLD	72000
TTM_SCR_SLD	36000
TTM_SCR_ALL	285500
TTM_SCR_S	276000
TTM_SCR_SS	284500
TTM_RAT_ACV	10035

