VERSION	0.00.00	1.03.00
FES_MODE	0
BPM_DEF	192.000	192.000	192.000	192.000
MET_DEF	4	4
RESOLUTION	384
CLK_DEF	384
COMPATIBLE_CODE	MA2

BPM	0	0	192.000
MET	0	0	4	4
MET	38	0	4	3
MET	48	192	4	4

XTP	1	0	2
TAP	1	192	2
HLD	2	0	2	192
HLD	2	0	3	192
TAP	3	0	5
TAP	3	192	5
HLD	4	0	4	192
HLD	4	0	5	192
TAP	5	0	2
TAP	5	192	2
HLD	6	0	2	192
HLD	6	0	3	192
TAP	7	0	5
TAP	7	96	5
TAP	7	192	4
TAP	7	192	5
TAP	8	0	3
TAP	8	96	3
TAP	8	192	2
TAP	8	192	4
XST	9	0	4
SI_	9	0	4	96	192	0
XTP	10	0	1
TAP	10	96	1
TAP	10	192	0
TAP	10	192	1
TAP	11	0	6
TAP	11	96	6
TAP	11	192	6
TAP	11	192	7
TAP	12	0	1
TAP	12	96	1
TAP	12	192	0
TAP	12	192	1
TAP	13	0	7
TAP	13	96	7
TAP	13	192	0
TAP	13	192	6
TAP	14	0	5
TAP	14	96	5
TAP	14	192	4
TAP	14	192	5
TAP	15	0	2
TAP	15	96	2
TAP	15	192	2
TAP	15	192	3
TAP	16	0	5
TAP	16	96	5
TAP	16	192	4
TAP	16	192	5
TAP	17	0	6
TAP	17	96	6
XTP	17	192	0
XTP	17	192	7
BST	17	288	0
SXL	17	288	0	96	576	3
BST	17	288	7
SXR	17	288	7	96	576	4
TAP	20	0	2
TAP	20	96	2
TAP	20	192	3
HLD	21	0	5	192
TAP	21	192	4
TAP	22	0	2
TAP	22	96	2
TAP	22	192	3
HLD	23	0	5	192
TAP	23	192	4
TAP	24	0	2
TAP	24	96	2
TAP	24	192	2
TAP	24	192	3
TAP	25	0	5
TAP	25	96	5
TAP	25	192	4
TAP	25	192	5
TAP	26	0	3
TAP	26	0	4
TAP	26	192	3
TAP	26	192	4
STR	27	0	4
SI_	27	0	4	96	192	0
XTP	28	0	1
XTP	28	0	7
HLD	29	0	1	192
TAP	29	192	0
TAP	30	0	6
TAP	30	96	6
TAP	30	192	7
HLD	31	0	1	192
TAP	31	192	0
TAP	32	0	6
TAP	32	96	6
TAP	32	192	7
TAP	33	0	1
TAP	33	96	1
TAP	33	192	0
TAP	33	192	1
TAP	34	0	6
TAP	34	96	6
TAP	34	192	6
TAP	34	192	7
HLD	35	0	1	192
HLD	35	192	0	192
HLD	36	0	7	192
TAP	36	192	6
XTP	37	0	1
XTP	37	0	6
XST	38	0	0
SCR	38	0	0	96	384	3
XST	39	192	4
SCR	39	192	4	96	336	7
XST	41	0	1
SCR	41	0	1	96	864	6
XST	44	0	7
SCL	44	0	7	96	384	4
STR	45	192	3
SCL	45	192	3	96	864	4
TTP	48	192	4	B	0	L1
TTP	49	0	5	B	0	L1
THO	49	192	0	192	C	1	L1
TTP	50	192	3	B	0	L1
TTP	51	0	2	B	0	L1
THO	51	192	0	192	C	1	L1
TTP	52	192	1	B	0	L1
TTP	53	0	0	B	0	L1
TTP	53	192	7	B	0	L1
TTP	54	0	6	B	0	L1
TTP	54	192	2	B	0	L1
TTP	54	192	5	B	0	L1
TTP	55	0	3	B	0	L1
TTP	55	0	4	B	0	L1
TTP	55	192	0	C	1	L1
XTP	56	192	0
XTP	56	192	7
XTP	56	288	0
XTP	56	288	7
BRK	57	0	1
BRK	57	0	6
TAP	57	192	1
TAP	57	288	1
TAP	58	0	0
TAP	58	0	1
TAP	58	96	0
TAP	58	96	1
TAP	58	192	2
TAP	58	288	3
TAP	59	0	2
TAP	59	0	4
TAP	59	192	6
TAP	59	288	6
TAP	60	0	6
TAP	60	0	7
TAP	60	96	6
TAP	60	96	7
TAP	60	192	5
TAP	60	288	4
TAP	61	0	3
TAP	61	0	5
TAP	61	192	2
TAP	61	288	2
TAP	62	0	2
TAP	62	0	3
TAP	62	96	2
TAP	62	96	3
TAP	62	192	1
TAP	62	288	0
TAP	63	0	1
TAP	63	0	7
TAP	63	192	6
TAP	63	288	6
TAP	64	0	6
TAP	64	0	7
TAP	64	96	6
TAP	64	96	7
TAP	64	192	5
TAP	64	288	4
TAP	65	0	3
TAP	65	0	5
XTP	65	192	1
TAP	65	288	1
TAP	66	0	2
TAP	66	96	2
TAP	66	192	3
TAP	66	288	4
TAP	67	0	3
TAP	67	0	5
XTP	67	192	5
TAP	67	288	5
TAP	68	0	6
TAP	68	96	6
TAP	68	192	7
TAP	68	288	0
TAP	69	0	1
TAP	69	0	7
XTP	69	192	2
TAP	69	288	2
TAP	70	0	1
TAP	70	96	1
TAP	70	192	0
TAP	70	288	7
TAP	71	0	0
TAP	71	0	6
XTP	71	192	6
TAP	71	288	6
TAP	72	0	7
TAP	72	96	7
XTP	72	192	0
XTP	72	192	7
XTP	72	288	0
XTP	72	288	7
XTP	73	0	1
XTP	73	0	6
XTP	73	96	1
XTP	73	96	6
XHO	73	192	1	384
XHO	73	192	6	384
TAP	75	192	1
TAP	75	288	1
TAP	76	0	0
TAP	76	0	1
TAP	76	192	6
TAP	76	288	6
TAP	77	0	6
TAP	77	0	7
TAP	77	192	5
TAP	77	288	5
TAP	78	0	4
TAP	78	0	5
TAP	78	192	2
TAP	78	288	2
TAP	79	0	2
TAP	79	0	3
TAP	79	192	1
TAP	79	288	1
TAP	80	0	0
TAP	80	96	0
TAP	80	192	7
TAP	80	288	7
TAP	81	0	0
TAP	81	0	6
TAP	81	192	1
TAP	81	288	1
TAP	82	0	0
TAP	82	0	1
TAP	82	192	6
TAP	82	288	6
TAP	83	0	6
TAP	83	0	7
TAP	83	192	5
TAP	83	288	5
TAP	84	0	4
TAP	84	96	4
TAP	84	192	3
TAP	84	288	3
TAP	85	0	2
TAP	85	0	4
TAP	85	192	2
TAP	85	288	2
TAP	86	0	2
TAP	86	0	3
TAP	86	192	5
TAP	86	288	5
TAP	87	0	4
TAP	87	0	5
TAP	87	192	6
TAP	87	288	6
TAP	88	0	7
TAP	88	96	7
XTP	88	192	0
XTP	88	288	1
XTP	89	0	2
XTP	89	96	3
XTP	89	192	4
XTP	89	288	5
XTP	90	0	6
XTP	90	96	7
XHO	90	192	1	576
XHO	90	192	6	576

T_REC_TAP	195
T_REC_BRK	2
T_REC_XTP	32
T_REC_HLD	13
T_REC_XHO	4
T_REC_STR	2
T_REC_BST	2
T_REC_XST	5
T_REC_TTP	13
T_REC_THO	2
T_REC_SLD	9
T_REC_ALL	279
T_NUM_TAP	247
T_NUM_BRK	4
T_NUM_HLD	19
T_NUM_SLD	9
T_NUM_ALL	279
T_JUDGE_TAP	251
T_JUDGE_HLD	100
T_JUDGE_SLD	9
T_JUDGE_ALL	360
TTM_EACHPAIRS	56
TTM_SCR_TAP	123500
TTM_SCR_BRK	10400
TTM_SCR_HLD	19000
TTM_SCR_SLD	13500
TTM_SCR_ALL	166400
TTM_SCR_S	161050
TTM_SCR_SS	166000
TTM_RAT_ACV	10024

