VERSION	0.00.00	1.03.00
FES_MODE	0
BPM_DEF	192.000	192.000	192.000	192.000
MET_DEF	4	4
RESOLUTION	384
CLK_DEF	384
COMPATIBLE_CODE	MA2

BPM	0	0	192.000
MET	0	0	4	4
MET	38	0	4	3
MET	48	192	4	4

TAP	1	0	0
TAP	1	192	0
TAP	2	0	1
TAP	3	0	2
TAP	3	192	2
TAP	4	0	3
TAP	5	0	4
TAP	5	192	4
TAP	6	0	5
TAP	7	0	6
TAP	7	192	6
TAP	8	0	0
TAP	8	0	7
TAP	10	0	7
TAP	10	192	7
TAP	11	0	6
TAP	11	192	6
TAP	12	0	5
TAP	12	192	5
TAP	13	0	4
TAP	14	0	3
TAP	14	192	3
TAP	15	0	2
TAP	15	192	2
TAP	16	0	1
TAP	16	192	1
BRK	17	0	0
XTP	18	0	0
XTP	18	0	7
TAP	20	0	0
TAP	20	192	0
TAP	21	0	1
TAP	21	96	1
TAP	21	192	1
TAP	22	0	2
TAP	22	192	2
TAP	23	0	3
TAP	23	96	3
TAP	23	192	3
HLD	24	0	4	384
TAP	26	0	5
TAP	26	192	5
TAP	27	0	6
TAP	27	192	6
BRK	28	0	7
TAP	29	0	7
TAP	29	192	7
TAP	30	0	6
TAP	30	96	6
TAP	30	192	6
TAP	31	0	5
TAP	31	192	5
TAP	32	0	4
TAP	32	96	4
TAP	32	192	4
HLD	33	0	3	384
TAP	35	0	2
TAP	35	192	2
TAP	36	0	1
TAP	36	192	1
BRK	37	0	0
STR	38	0	0
SI_	38	0	0	96	384	4
STR	41	0	7
SI_	41	0	7	96	384	3
TAP	44	0	0
TAP	44	288	1
TAP	45	192	2
XTP	46	96	3
TTP	48	192	3	E	0	L1
TTP	49	192	2	E	0	L1
TTP	50	192	1	E	0	L1
TTP	51	192	0	E	0	L1
TTP	52	192	7	E	0	L1
TTP	53	192	6	E	0	L1
TTP	54	192	5	E	0	L1
TTP	55	192	0	C	1	L1
TAP	57	192	0
TAP	57	288	0
TAP	58	0	0
TAP	58	192	1
TAP	59	0	1
TAP	59	192	2
TAP	59	288	2
TAP	60	0	2
TAP	60	192	2
TAP	60	192	3
TAP	61	0	2
TAP	61	0	3
TAP	61	192	4
TAP	61	288	4
TAP	62	0	4
TAP	62	192	5
TAP	63	0	5
TAP	63	192	6
TAP	63	288	6
TAP	64	0	6
TAP	64	192	0
TAP	64	192	7
TAP	65	0	0
TAP	65	0	7
TAP	65	192	7
TAP	65	288	7
TAP	66	0	7
TAP	66	192	6
TAP	67	0	6
TAP	67	192	5
TAP	67	288	5
TAP	68	0	5
TAP	68	192	4
TAP	68	192	5
TAP	69	0	4
TAP	69	0	5
TAP	69	192	3
TAP	69	288	3
TAP	70	0	3
TAP	70	192	2
TAP	71	0	2
TAP	71	192	1
TAP	71	288	1
TAP	72	0	1
TAP	72	192	0
TAP	72	192	7
TAP	73	0	0
TAP	73	0	7
HLD	73	192	0	384
HLD	73	192	7	384
TAP	75	192	6
TAP	75	288	6
TAP	76	0	6
TAP	76	0	7
TAP	76	192	1
TAP	76	288	1
TAP	77	0	0
TAP	77	0	1
TAP	77	192	7
TAP	77	288	7
TAP	78	0	7
TAP	78	192	6
TAP	78	288	6
TAP	79	0	6
TAP	79	192	5
TAP	79	288	5
TAP	80	0	4
TAP	80	0	5
TAP	80	192	3
TAP	80	192	4
TAP	81	0	3
TAP	81	0	4
TAP	81	192	3
TAP	81	288	3
TAP	82	0	3
TAP	82	192	2
TAP	82	288	2
TAP	83	0	2
TAP	83	192	1
TAP	83	288	1
TAP	84	0	0
TAP	84	0	1
TAP	84	192	0
TAP	84	192	7
TAP	85	0	0
TAP	85	0	7
TAP	85	192	1
TAP	85	288	1
TAP	86	0	1
TAP	86	192	2
TAP	86	288	2
TAP	87	0	2
TAP	87	192	3
TAP	87	288	3
TAP	88	0	3
TAP	88	192	4
TAP	88	288	4
TAP	89	0	4
TAP	89	192	5
TAP	89	288	5
TAP	90	0	5
BRK	90	192	6

T_REC_TAP	156
T_REC_BRK	4
T_REC_XTP	3
T_REC_HLD	4
T_REC_XHO	0
T_REC_STR	2
T_REC_BST	0
T_REC_XST	0
T_REC_TTP	8
T_REC_THO	0
T_REC_SLD	2
T_REC_ALL	179
T_NUM_TAP	169
T_NUM_BRK	4
T_NUM_HLD	4
T_NUM_SLD	2
T_NUM_ALL	179
T_JUDGE_TAP	173
T_JUDGE_HLD	32
T_JUDGE_SLD	2
T_JUDGE_ALL	207
TTM_EACHPAIRS	19
TTM_SCR_TAP	84500
TTM_SCR_BRK	10400
TTM_SCR_HLD	4000
TTM_SCR_SLD	3000
TTM_SCR_ALL	101900
TTM_SCR_S	98500
TTM_SCR_SS	101500
TTM_RAT_ACV	10039

