VERSION	0.00.00	1.03.00
FES_MODE	0
BPM_DEF	185.000	185.000	185.000	185.000
MET_DEF	4	4
RESOLUTION	384
CLK_DEF	384
COMPATIBLE_CODE	MA2

BPM	0	0	185.000
MET	0	0	4	4

TAP	1	336	3
HLD	2	0	2	96
TAP	2	96	3
TAP	2	144	3
TAP	2	240	1
HLD	2	240	5	96
TAP	2	336	4
TAP	3	48	3
TAP	3	48	6
TAP	3	144	2
TAP	3	192	2
TAP	3	240	3
TAP	3	288	1
HLD	3	336	6	96
TAP	4	48	4
TAP	4	144	5
TAP	4	192	5
TAP	4	240	4
TAP	4	288	6
HLD	4	336	1	96
TAP	5	48	3
TAP	5	144	7
TAP	5	192	7
STR	5	240	0
SUR	5	240	0	96	96	4
TAP	5	336	4
TAP	6	48	5
TAP	6	96	5
TAP	6	144	4
HLD	6	240	2	96
TAP	6	240	6
TAP	6	336	3
TAP	7	48	1
TAP	7	48	4
TAP	7	144	2
TAP	7	192	2
TAP	7	240	3
TAP	7	288	1
STR	7	336	6
SCL	7	336	6	96	48	3
TAP	8	48	0
TAP	8	96	0
STR	8	144	1
SCR	8	144	1	96	48	4
TAP	8	240	7
TAP	8	288	7
HLD	8	336	6	96
TAP	9	48	4
TAP	9	96	4
TAP	9	192	2
TAP	9	240	2
TAP	9	288	3
TAP	10	0	1
HLD	10	0	5	96
TAP	10	96	4
HLD	10	144	3	96
TAP	10	144	6
TAP	10	192	5
TAP	10	240	4
TAP	10	288	2
TAP	10	336	1
TAP	10	336	4
TAP	11	0	5
HLD	11	48	2	96
TAP	11	48	6
TAP	11	96	5
TAP	11	144	4
TAP	11	192	3
HLD	11	192	4	96
TAP	11	240	2
TAP	11	288	1
TAP	11	336	0
TAP	12	0	0
TAP	12	48	7
TAP	12	96	7
TAP	12	144	6
TAP	12	192	5
TAP	12	240	4
TAP	12	288	3
TAP	12	336	2
TAP	12	336	4
TAP	13	48	3
TAP	13	48	5
STR	13	144	0
SCR	13	144	0	96	96	4
STR	13	240	4
SCR	13	240	4	96	96	0
STR	13	336	0
SCR	13	336	0	96	96	4
TAP	14	48	4
TAP	14	144	0
TAP	14	192	0
TAP	14	288	2
TAP	14	288	6
STR	14	336	2
SI_	14	336	2	96	48	5
STR	14	336	6
SI_	14	336	6	96	48	1
XTP	15	144	0
XTP	15	144	4
STR	15	240	6
SI_	15	240	6	96	48	4
STR	15	240	7
SI_	15	240	7	96	48	3
TAP	15	336	6
TAP	15	336	7
STR	16	48	0
SI_	16	48	0	96	48	4
STR	16	48	1
SI_	16	48	1	96	48	3
TAP	16	144	0
TAP	16	144	1
TAP	16	240	2
TAP	16	240	6
TAP	16	288	2
TAP	16	288	6
TAP	16	336	1
STR	17	0	0
SI_	17	0	0	96	48	4
STR	17	48	7
SI_	17	48	7	96	48	3
XTP	17	96	0
XTP	17	144	7
TAP	17	240	4
STR	17	288	4
SCR	17	288	4	96	384	3
BRK	18	0	0
STR	20	0	7
SCL	20	0	7	96	192	4
STR	21	0	3
SCL	21	0	3	96	192	0
TAP	21	192	5
HLD	22	0	6	48
TTP	22	48	4	E	0	M1
HLD	22	96	6	48
TTP	22	144	2	E	0	M1
HLD	22	192	5	48
TTP	22	240	3	B	0	M1
HLD	22	288	5	48
TTP	22	336	2	B	0	M1
HLD	23	0	6	48
TTP	23	48	4	E	0	M1
HLD	23	96	6	48
TTP	23	144	1	E	0	M1
HLD	23	192	4	48
TTP	23	240	2	E	0	M1
HLD	23	288	4	48
TTP	23	336	0	E	0	M1
HLD	24	0	5	48
TTP	24	48	4	E	0	M1
HLD	24	96	5	48
TTP	24	144	2	E	0	M1
HLD	24	192	4	48
TTP	24	240	3	E	0	M1
HLD	24	288	4	48
TTP	24	336	1	E	0	M1
HLD	25	0	5	48
TTP	25	48	4	E	0	M1
HLD	25	96	5	48
TTP	25	144	0	E	0	M1
HLD	25	192	4	48
TTP	25	240	3	E	0	M1
TAP	25	288	4
TAP	25	336	4
TAP	26	0	2
TAP	26	48	2
TAP	26	96	3
TAP	26	96	4
TAP	26	144	3
TAP	26	144	4
TAP	26	192	5
TAP	26	240	5
TAP	26	288	3
TAP	26	288	4
TAP	26	336	3
TAP	26	336	4
TAP	27	0	3
TAP	27	0	4
TAP	27	48	2
TAP	27	48	5
TAP	27	96	1
TAP	27	96	6
BRK	27	144	0
STR	27	192	7
SLL	27	192	7	96	48	3
STR	27	240	3
SCL	27	240	3	96	144	4
TAP	27	288	7
TTP	27	336	0	C	1	M1
STR	28	192	0
SI_	28	192	0	96	48	4
TAP	28	288	6
STR	28	336	6
SCR	28	336	6	96	48	1
TAP	29	48	3
STR	29	96	3
SF_	29	96	3	96	48	7
XTP	29	192	3
TAP	29	336	7
TAP	30	0	0
TAP	30	48	1
TAP	30	48	3
TAP	30	96	4
TAP	30	144	3
STR	30	144	5
SI_	30	144	5	96	48	1
STR	30	240	2
SI_	30	240	2	96	48	7
TAP	30	240	5
TAP	30	336	2
STR	30	336	6
SXL	30	336	6	96	144	3
TAP	31	48	1
TAP	31	96	1
TAP	31	192	2
BRK	31	288	1
BRK	31	288	5
BRK	31	336	3
BRK	31	336	7
TAP	32	144	2
STR	32	192	2
SI_	32	192	2	96	48	7
TAP	32	288	6
STR	32	336	6
SI_	32	336	6	96	48	3
TAP	33	48	2
HLD	33	96	2	96
TAP	33	192	4
TAP	33	240	5
TAP	33	288	6
TAP	33	288	7
TAP	33	336	0
TAP	34	0	1
TAP	34	0	3
STR	34	48	4
SI_	34	48	4	96	48	7
STR	34	144	3
SI_	34	144	3	96	48	0
STR	34	240	4
SUL	34	240	4	96	144	3
BRK	34	336	0
STR	35	192	0
SLR	35	192	0	96	48	4
STR	35	240	4
SCR	35	240	4	96	144	3
TAP	35	288	0
TTP	35	336	0	C	1	M1
STR	36	192	7
SI_	36	192	7	96	48	3
TAP	36	288	1
STR	36	336	1
SCL	36	336	1	96	48	6
TAP	37	48	4
STR	37	96	4
SCL	37	96	4	96	48	1
SCR	37	96	4	96	48	7
XTP	37	192	4
TAP	37	336	0
TAP	38	0	7
TAP	38	48	4
TAP	38	48	6
TAP	38	96	3
STR	38	144	2
SI_	38	144	2	96	48	6
TAP	38	144	4
TAP	38	240	2
STR	38	240	5
SI_	38	240	5	96	48	0
STR	38	336	1
SXR	38	336	1	96	144	4
TAP	38	336	5
TAP	39	48	6
TAP	39	96	6
TAP	39	192	5
STR	39	240	5
SI_	39	240	5	96	48	1
STR	39	336	0
SI_	39	336	0	96	48	4
TAP	39	336	5
TAP	40	48	0
TAP	40	144	6
STR	40	192	6
SI_	40	192	6	96	48	2
TAP	40	288	0
STR	40	336	0
SI_	40	336	0	96	48	4
TAP	41	48	7
HLD	41	96	7	96
TAP	41	192	0
TAP	41	240	7
TAP	41	288	4
TAP	41	288	6
TAP	41	336	3
TAP	42	0	5
TAP	42	48	2
TAP	42	96	1
TAP	42	96	3
TAP	42	144	0
TAP	42	192	0
STR	42	240	4
SI_	42	240	4	96	48	7
STR	42	336	4
SI_	42	336	4	96	48	1
XTP	43	48	4
TAP	43	144	7
TAP	43	192	7
TAP	43	240	3
TAP	43	288	4
BRK	43	336	1
BRK	43	336	6
TAP	44	48	5
TAP	44	96	4
TAP	44	144	6
STR	44	192	0
SCR	44	192	0	96	48	3
STR	44	240	0
SCL	44	240	0	96	48	5
TAP	45	48	2
TAP	45	96	3
TAP	45	144	1
STR	45	192	7
SCL	45	192	7	96	48	4
STR	45	240	7
SCR	45	240	7	96	48	2
TAP	46	48	5
TAP	46	96	4
TAP	46	144	6
STR	46	192	0
SCR	46	192	0	96	48	3
STR	46	240	0
SCL	46	240	0	96	48	5
TAP	47	48	2
TAP	47	96	3
TAP	47	144	1
TAP	47	192	5
TAP	47	240	6
TAP	47	288	0
TAP	47	288	7
TAP	47	336	2
TAP	47	336	5
TAP	48	48	1
TAP	48	96	3
TAP	48	144	2
STR	48	192	4
SI_	48	192	4	96	48	7
STR	48	240	4
SI_	48	240	4	96	48	1
TAP	49	48	7
TAP	49	96	4
TAP	49	144	5
STR	49	192	3
SI_	49	192	3	96	48	0
STR	49	240	3
SI_	49	240	3	96	48	6
TAP	50	48	0
TAP	50	96	3
TAP	50	144	2
STR	50	192	4
SI_	50	192	4	96	48	7
STR	50	240	4
SI_	50	240	4	96	48	1
TAP	51	48	5
TAP	51	96	3
TAP	51	144	6
STR	51	192	1
SI_	51	192	1	96	48	5
STR	51	240	7
SI_	51	240	7	96	48	3
TAP	51	288	1
TAP	51	336	7
HLD	52	336	2	384
HLD	53	336	3	384
HLD	54	336	4	240
TAP	55	288	3
TAP	55	288	5
HLD	56	0	2	48
HLD	56	96	2	48
TAP	56	96	3
TAP	56	192	1
TAP	56	240	1
HLD	56	288	3	48
HLD	57	0	5	48
TAP	57	96	4
HLD	57	96	5	48
TAP	57	192	6
TAP	57	240	6
HLD	57	288	4	48
HLD	58	0	2	48
HLD	58	96	2	48
TAP	58	96	3
TAP	58	192	1
TAP	58	240	1
HLD	58	288	3	48
HLD	59	0	7	48
TAP	59	96	4
HLD	59	96	6	48
TAP	59	192	1
TAP	59	240	1
HLD	59	288	2	48
TAP	59	288	4
HLD	60	0	5	48
TAP	60	96	4
HLD	60	96	5	48
TAP	60	192	6
TAP	60	240	6
HLD	60	288	4	48
HLD	61	0	2	48
HLD	61	96	2	48
TAP	61	96	3
TAP	61	192	1
TAP	61	240	1
HLD	61	288	3	48
HLD	62	0	5	48
TAP	62	96	4
HLD	62	96	5	48
TAP	62	192	6
TAP	62	240	6
HLD	62	288	4	48
HLD	63	0	0	48
HLD	63	96	1	48
TAP	63	96	3
TAP	63	192	2
TAP	63	240	3
TAP	63	288	2
TAP	63	288	4
STR	63	336	2
SI_	63	336	2	96	48	5
TAP	63	336	4
TAP	64	48	6
TAP	64	144	7
TAP	64	192	7
TAP	64	240	0
TAP	64	288	0
STR	64	336	5
SI_	64	336	5	96	48	3
TAP	65	48	1
STR	65	96	1
SUR	65	96	1	96	48	5
TAP	65	192	6
TAP	65	240	6
TAP	65	336	7
STR	66	0	7
SCL	66	0	7	96	48	4
TAP	66	96	3
STR	66	144	3
SCL	66	144	3	96	48	0
STR	66	240	7
SCL	66	240	7	96	48	4
TAP	66	336	3
HLD	67	0	3	96
TAP	67	96	4
TAP	67	144	2
TAP	67	144	5
STR	67	240	0
SCR	67	240	0	96	48	3
STR	67	240	7
SCL	67	240	7	96	48	4
XTP	67	336	0
XTP	67	336	7
TAP	68	144	2
TAP	68	192	3
TAP	68	240	4
TAP	68	288	5
STR	68	336	5
SI_	68	336	5	96	48	2
TAP	69	48	1
TAP	69	96	1
TAP	69	144	0
TAP	69	192	0
HLD	69	240	7	96
STR	69	336	4
SI_	69	336	4	96	48	7
TAP	70	48	5
TAP	70	96	6
TAP	70	144	6
TAP	70	192	2
TAP	70	240	2
TAP	70	288	4
STR	70	336	0
SI_	70	336	0	96	48	3
TAP	71	48	7
STR	71	96	7
SCL	71	96	7	96	48	4
TAP	71	144	2
TAP	71	192	1
TAP	71	240	1
TAP	71	288	4
TAP	71	336	3
TAP	71	336	5
TAP	72	48	2
TAP	72	72	3
TAP	72	96	1
TAP	72	144	5
TAP	72	168	4
TAP	72	192	6
TAP	72	240	0
TAP	72	288	0
HLD	72	336	7	96
TAP	73	48	4
STR	73	96	4
SXR	73	96	4	96	96	4
TAP	73	192	6
TAP	73	336	5
TAP	74	0	5
TAP	74	48	4
TAP	74	96	6
HLD	74	144	0	96
STR	74	240	2
SI_	74	240	2	96	48	5
TAP	75	48	1
TAP	75	96	2
TAP	75	144	3
TAP	75	192	6
TAP	75	240	5
TAP	75	288	4
TAP	75	336	3
TAP	75	336	7
TAP	76	48	5
TAP	76	72	4
TAP	76	96	6
TAP	76	144	2
TAP	76	168	3
TAP	76	192	1
TAP	76	240	7
TAP	76	288	7
HLD	76	336	0	96
TAP	77	48	3
STR	77	96	3
SXL	77	96	3	96	96	3
TAP	77	192	1
TAP	77	336	2
TAP	78	0	2
TAP	78	48	3
TAP	78	96	1
HLD	78	144	7	96
STR	78	240	5
SI_	78	240	5	96	48	2
TAP	79	48	6
TAP	79	96	5
TAP	79	144	4
STR	79	240	0
SCL	79	240	0	96	336	4
TTP	81	336	7	B	0	M1
TTP	82	0	0	B	0	M1
TTP	82	96	0	C	0	M1
TTP	82	192	5	E	0	M1
TTP	82	240	4	B	0	M1
TTP	82	288	3	B	0	M1
TTP	82	336	3	E	0	M1
TTP	83	48	5	B	0	M1
TTP	83	48	6	B	0	M1
TTP	83	144	1	B	0	M1
TTP	83	144	2	B	0	M1
TTP	83	240	0	E	0	M1
THO	83	336	0	192	C	0	M1
TTP	83	336	1	B	0	M1
TTP	83	336	6	B	0	M1
THO	84	288	0	192	C	0	M1
TTP	84	288	2	B	0	M1
TTP	84	288	5	B	0	M1
TAP	85	240	7
TAP	85	288	7
TAP	85	336	0
HLD	86	0	0	384
TAP	86	96	4
TAP	86	192	3
TAP	86	240	4
TAP	86	288	5
STR	87	0	7
SI_	87	0	7	96	48	3
STR	87	48	0
SI_	87	48	0	96	48	4
XTP	87	96	7
XTP	87	144	0
STR	87	240	6
SXL	87	240	6	96	192	3
HLD	87	336	3	96
TAP	88	144	0
TAP	88	192	0
TAP	88	288	5
TAP	88	336	5
TAP	89	0	3
TAP	89	0	4
TAP	89	48	3
TAP	89	48	4
TAP	89	96	2
TAP	89	96	5
TAP	89	144	1
TAP	89	144	6
STR	89	192	0
SXL	89	192	0	96	96	0
TAP	89	240	7
STR	89	288	0
SCL	89	288	0	96	144	1
TAP	89	336	6
TAP	90	0	6
STR	90	288	7
SXR	90	288	7	96	144	2
TAP	90	336	7
HLD	91	0	3	144
STR	91	240	2
SXR	91	240	2	96	144	5
TAP	91	288	2
HLD	91	336	7	192
STR	92	240	6
SI_	92	240	6	96	48	2
TAP	92	288	6
TAP	92	336	0
TAP	93	0	0
STR	93	96	1
SI_	93	96	1	96	48	4
STR	93	96	3
SI_	93	96	3	96	48	7
XTP	93	192	1
XTP	93	192	3
STR	93	336	1
SI_	93	336	1	96	48	4
TAP	94	48	0
TAP	94	48	1
TAP	94	96	7
TAP	94	144	6
TAP	94	192	4
TAP	94	192	5
TAP	94	240	3
TAP	94	288	2
TAP	94	288	4
STR	94	336	1
SV_	94	336	1	96	48	4
TAP	95	48	0
TAP	95	48	1
TAP	95	96	7
TAP	95	144	6
TAP	95	192	3
TAP	95	192	5
TAP	95	240	2
TAP	95	288	1
TAP	95	288	3
BST	95	336	0
SI_	95	336	0	96	48	4
TAP	96	48	0
TAP	96	48	7
TAP	96	96	6
TAP	96	144	5
TAP	96	192	3
TAP	96	192	4
TAP	96	240	2
TAP	96	288	1
TAP	96	288	3
BST	96	336	0
SI_	96	336	0	96	48	4
TAP	97	48	0
TAP	97	48	6
TAP	97	96	7
TAP	97	144	0
TAP	97	192	1
TAP	97	192	3
STR	97	240	4
SCR	97	240	4	96	144	3
TAP	97	288	3
TAP	97	336	2
STR	98	288	2
SXL	98	288	2	96	144	7
TAP	98	336	2
HLD	99	0	6	192
STR	99	288	5
SXL	99	288	5	96	144	3
TAP	99	336	5
HLD	100	0	0	192
TAP	100	288	1
TAP	100	288	4
TAP	100	336	2
TAP	100	336	5
TAP	101	0	3
TAP	101	0	6
STR	101	96	4
SI_	101	96	4	96	48	1
STR	101	96	5
SI_	101	96	5	96	48	0
XTP	101	192	4
XTP	101	192	5
STR	101	336	6
SI_	101	336	6	96	48	3
TAP	102	48	6
TAP	102	48	7
TAP	102	96	0
TAP	102	144	1
TAP	102	192	2
TAP	102	192	3
TAP	102	240	4
TAP	102	288	3
TAP	102	288	5
STR	102	336	6
SV_	102	336	6	96	48	3
TAP	103	48	6
TAP	103	48	7
TAP	103	96	0
TAP	103	144	1
TAP	103	192	2
TAP	103	192	4
TAP	103	240	5
TAP	103	288	4
TAP	103	288	6
BST	103	336	7
SI_	103	336	7	96	48	3
TAP	104	48	1
TAP	104	48	7
TAP	104	96	0
TAP	104	144	7
TAP	104	192	4
TAP	104	192	6
TAP	104	240	3
TAP	104	288	2
BST	104	336	0
SI_	104	336	0	96	48	4
BST	104	336	1
SI_	104	336	1	96	48	5
XTP	105	48	0
XTP	105	48	1
TAP	105	144	6
TAP	105	144	7
TAP	105	192	5
STR	105	240	0
SI_	105	240	0	96	48	3
STR	105	240	4
SI_	105	240	4	96	48	7
XTP	105	336	0
XTP	105	336	4
BRK	106	48	2
BRK	106	48	6

T_REC_TAP	396
T_REC_BRK	11
T_REC_XTP	19
T_REC_HLD	65
T_REC_XHO	0
T_REC_STR	96
T_REC_BST	5
T_REC_XST	0
T_REC_TTP	33
T_REC_THO	2
T_REC_SLD	102
T_REC_ALL	729
T_NUM_TAP	544
T_NUM_BRK	16
T_NUM_HLD	67
T_NUM_SLD	102
T_NUM_ALL	729
T_JUDGE_TAP	560
T_JUDGE_HLD	128
T_JUDGE_SLD	102
T_JUDGE_ALL	790
TTM_EACHPAIRS	98
TTM_SCR_TAP	272000
TTM_SCR_BRK	41600
TTM_SCR_HLD	67000
TTM_SCR_SLD	153000
TTM_SCR_ALL	533600
TTM_SCR_S	516050
TTM_SCR_SS	532000
TTM_RAT_ACV	10030

