VERSION	0.00.00	1.03.00
FES_MODE	0
BPM_DEF	185.000	185.000	185.000	185.000
MET_DEF	4	4
RESOLUTION	384
CLK_DEF	384
COMPATIBLE_CODE	MA2

BPM	0	0	185.000
MET	0	0	4	4

HLD	2	0	1	672
TAP	2	96	3
TAP	2	288	3
TAP	3	96	4
TAP	3	288	5
HLD	4	0	6	672
TAP	4	96	4
TAP	4	288	4
TAP	5	96	3
TAP	5	288	2
HLD	6	0	1	672
TAP	6	96	3
TAP	6	288	3
TAP	7	96	4
TAP	7	288	5
TAP	8	0	6
TAP	8	96	7
TAP	8	192	0
TAP	8	288	1
TAP	9	0	2
TAP	9	0	3
TAP	9	96	2
TAP	9	96	3
TAP	9	192	1
TAP	9	192	4
TAP	10	0	6
TAP	10	96	5
TAP	10	192	4
TAP	10	288	3
TAP	11	0	2
TAP	11	96	1
TAP	11	192	0
TAP	12	0	1
TAP	12	96	2
TAP	12	192	3
TAP	12	288	4
TAP	13	0	5
TAP	13	96	6
TAP	13	192	7
TAP	14	0	0
TAP	14	0	1
TAP	14	96	0
TAP	14	96	1
TAP	14	192	2
TAP	14	192	7
TAP	14	288	2
TAP	14	288	7
TAP	15	0	3
TAP	15	0	6
TAP	15	96	3
TAP	15	96	6
TAP	15	192	4
STR	15	192	5
SI_	15	192	5	96	48	7
STR	16	0	2
SI_	16	0	2	96	48	0
STR	16	192	5
SI_	16	192	5	96	48	7
TAP	17	0	0
XTP	17	96	1
XTP	17	96	6
XTP	17	144	1
XTP	17	144	6
TTP	18	0	0	C	0	M1
TTP	20	0	3	E	0	M1
TTP	20	0	5	E	0	M1
TTP	21	0	2	E	0	M1
TTP	21	0	6	E	0	M1
TTP	22	0	0	E	0	M1
TTP	22	96	1	E	0	M1
TTP	22	192	2	E	0	M1
TTP	22	288	3	E	0	M1
TTP	23	0	4	E	0	M1
TTP	23	96	5	E	0	M1
TTP	23	192	6	E	0	M1
TTP	23	288	7	E	0	M1
XTP	24	0	1
XTP	24	48	1
TAP	24	144	5
TAP	24	192	5
TAP	24	288	3
TAP	24	336	3
TAP	25	48	7
STR	25	96	7
SUL	25	96	7	96	96	3
SUR	25	96	7	96	96	3
TAP	26	0	5
TAP	26	48	4
TAP	26	144	2
TAP	26	192	3
TAP	26	288	6
TAP	26	336	7
TAP	27	48	1
TAP	27	96	0
XTP	27	192	0
XTP	27	192	7
XTP	27	240	0
XTP	27	240	7
TTP	27	336	0	C	1	M1
TTP	27	336	2	B	0	M1
TTP	27	336	5	B	0	M1
XTP	28	192	1
XTP	28	192	7
TAP	28	288	4
TAP	28	288	5
TAP	28	336	4
TAP	28	336	5
TAP	29	48	6
TAP	29	48	7
TAP	29	96	6
TAP	29	96	7
XTP	29	192	0
XTP	29	192	5
TAP	29	336	2
TAP	30	0	3
TAP	30	48	1
TAP	30	144	6
STR	30	240	0
SI_	30	240	0	96	48	4
TAP	30	336	7
TAP	31	48	3
TAP	31	48	6
TAP	31	96	3
TAP	31	96	6
TAP	31	192	5
TAP	31	288	1
TAP	31	288	4
TAP	31	336	1
TAP	31	336	4
TAP	32	144	1
HLD	32	192	1	96
TAP	32	288	3
HLD	32	336	3	96
TAP	33	48	5
HLD	33	96	5	96
TAP	33	192	7
TAP	33	240	7
TAP	33	288	0
TAP	34	0	5
TAP	34	48	5
TTP	34	144	1	B	0	M1
TTP	34	144	1	E	0	M1
TTP	34	240	6	B	0	M1
TTP	34	240	7	E	0	M1
TTP	34	336	3	B	0	M1
TTP	34	336	3	E	0	M1
TTP	34	336	4	B	0	M1
TTP	34	336	5	E	0	M1
XTP	35	192	0
XTP	35	192	7
XTP	35	240	0
XTP	35	240	7
TTP	35	336	0	C	1	M1
TTP	35	336	2	B	0	M1
TTP	35	336	5	B	0	M1
XTP	36	192	0
XTP	36	192	6
TAP	36	288	2
TAP	36	288	3
TAP	36	336	2
TAP	36	336	3
TAP	37	48	0
TAP	37	48	1
TAP	37	96	0
TAP	37	96	1
XTP	37	192	2
XTP	37	192	7
TAP	37	336	5
TAP	38	0	4
TAP	38	48	6
TAP	38	144	1
STR	38	240	7
SI_	38	240	7	96	48	3
TAP	38	336	0
TAP	39	48	1
TAP	39	48	4
TAP	39	96	1
TAP	39	96	4
TAP	39	192	2
TAP	39	240	2
XTP	39	336	3
XTP	39	336	5
XTP	40	48	0
XTP	40	48	7
TAP	40	144	6
HLD	40	192	6	96
TAP	40	288	4
HLD	40	336	4	96
TAP	41	48	2
HLD	41	96	2	96
TAP	41	192	0
TAP	41	240	0
TAP	41	288	7
TAP	42	0	2
TAP	42	48	2
TAP	42	144	4
TAP	42	144	5
TAP	42	240	3
TAP	42	336	2
TAP	42	336	3
TAP	43	48	1
TAP	43	48	4
TAP	43	144	4
TAP	43	144	5
TAP	43	192	4
TAP	43	192	5
TAP	43	288	6
TAP	43	288	7
BST	43	336	6
SXR	43	336	6	96	144	4
BST	43	336	7
SCR	43	336	7	96	144	3
TAP	44	288	0
TAP	44	288	1
STR	44	336	0
SCL	44	336	0	96	144	4
STR	44	336	1
SXL	44	336	1	96	144	3
TAP	45	288	6
TAP	45	288	7
STR	45	336	6
SXR	45	336	6	96	144	4
STR	45	336	7
SCR	45	336	7	96	144	3
TAP	46	288	0
TAP	46	288	1
STR	46	336	0
SCL	46	336	0	96	144	4
STR	46	336	1
SXL	46	336	1	96	144	3
TAP	47	288	6
TAP	47	288	7
TAP	47	336	6
TAP	47	336	7
TAP	48	48	1
HLD	48	96	1	192
TAP	48	192	3
TAP	48	288	6
HLD	48	336	6	336
TAP	49	48	4
TAP	49	96	4
TAP	49	192	3
TAP	49	288	1
HLD	49	336	1	336
TAP	50	48	3
TAP	50	96	3
TAP	50	192	4
TAP	50	288	6
HLD	50	336	6	240
TAP	51	48	4
TAP	51	96	4
TAP	51	192	3
STR	51	240	3
SCL	51	240	3	96	720	4
TTP	51	336	0	C	1	M1
TTP	56	0	2	B	0	M1
TTP	56	192	3	B	0	M1
TTP	57	0	4	E	0	M1
TTP	58	0	5	B	0	M1
TTP	58	192	4	B	0	M1
TTP	59	0	4	E	0	M1
TTP	60	0	2	B	0	M1
TTP	60	192	3	B	0	M1
TTP	61	0	4	E	0	M1
TTP	62	0	4	B	0	M1
TTP	62	0	5	E	0	M1
TTP	62	192	3	B	0	M1
TTP	62	192	3	E	0	M1
TTP	63	0	0	C	0	M1
TTP	63	0	1	B	0	M1
TTP	63	0	6	B	0	M1
HLD	64	0	2	576
TAP	64	96	3
TAP	64	288	4
TAP	65	96	3
TAP	65	192	3
HLD	66	0	5	576
TAP	66	96	4
TAP	66	288	3
TAP	67	96	4
TAP	67	192	4
HLD	68	0	1	576
TAP	68	96	3
TAP	68	288	4
TAP	69	96	3
TAP	69	192	3
HLD	70	0	6	384
TAP	70	96	4
TAP	70	288	3
TAP	71	96	4
TAP	71	96	5
XTP	71	192	3
XTP	71	192	6
TAP	72	0	6
TAP	72	96	6
TAP	72	192	6
TAP	72	192	7
TAP	73	0	1
TAP	73	96	1
TAP	73	192	0
TAP	73	192	1
TAP	74	0	6
TAP	74	96	6
TAP	74	192	7
TAP	74	288	7
TAP	75	0	0
TAP	75	96	1
TAP	75	192	2
TAP	75	192	4
TAP	76	0	1
TAP	76	96	1
TAP	76	192	0
TAP	76	192	1
TAP	77	0	6
TAP	77	96	6
TAP	77	192	6
TAP	77	192	7
TAP	78	0	1
TAP	78	96	1
TAP	78	192	0
TAP	78	288	0
TAP	79	0	7
TAP	79	96	6
TAP	79	192	5
TAP	79	288	4
STR	80	0	3
SXR	80	0	3	96	528	0
STR	80	0	4
SXL	80	0	4	96	528	7
TTP	84	0	4	E	0	M1
TTP	84	96	3	E	0	M1
TTP	84	192	2	E	0	M1
TTP	84	288	1	E	0	M1
TTP	85	0	0	E	0	M1
TTP	85	96	7	E	0	M1
TTP	85	192	6	E	0	M1
TTP	85	288	5	E	0	M1
TAP	86	0	3
TAP	86	48	3
TAP	86	144	7
TAP	86	192	7
TAP	86	288	1
TAP	86	336	1
TAP	87	48	5
TAP	87	96	5
TAP	87	192	3
TAP	87	192	4
TAP	87	288	2
TAP	87	288	5
TAP	88	0	6
TAP	88	48	7
TAP	88	144	1
TAP	88	192	0
TAP	88	288	5
TAP	88	336	4
TAP	89	48	2
TAP	89	96	3
TAP	89	192	3
TAP	89	192	4
TAP	89	240	3
TAP	89	240	4
TAP	89	288	3
TAP	89	288	4
TTP	90	0	0	C	1	M1
TTP	90	0	1	B	0	M1
TTP	90	0	2	B	0	M1
TTP	90	0	5	B	0	M1
TTP	90	0	6	B	0	M1
XTP	90	192	0
XTP	90	192	7
TAP	90	288	6
STR	90	336	6
SI_	90	336	6	96	48	3
TAP	91	48	2
TAP	91	96	2
TAP	91	192	1
TAP	91	192	4
TAP	91	288	2
STR	91	336	2
SI_	91	336	2	96	48	7
TAP	92	48	6
TAP	92	96	6
TAP	92	192	0
TAP	92	192	5
TAP	92	288	1
STR	92	336	1
SI_	92	336	1	96	48	4
TAP	93	48	5
TAP	93	96	5
TAP	93	192	2
TAP	93	192	6
TAP	93	240	2
TAP	93	240	6
XTP	93	336	1
XTP	93	336	5
TAP	94	48	2
TAP	94	96	3
TAP	94	144	2
TAP	94	240	3
TAP	94	240	4
TAP	94	336	4
TAP	94	336	5
TAP	95	48	5
TAP	95	96	4
TAP	95	144	5
TAP	95	240	4
TAP	95	240	5
TAP	95	336	3
TAP	95	336	6
TAP	96	48	2
TAP	96	48	3
TAP	96	96	2
TAP	96	96	3
TAP	96	192	1
TAP	96	192	4
TAP	96	288	4
TAP	96	288	5
TAP	96	336	4
TAP	96	336	5
TAP	97	48	3
TAP	97	48	6
TAP	97	96	3
TAP	97	96	6
TAP	97	192	1
TAP	97	192	4
TAP	97	240	1
TAP	97	240	4
TTP	97	336	0	C	1	M1
TTP	97	336	1	B	0	M1
TTP	97	336	2	B	0	M1
TTP	97	336	5	B	0	M1
TTP	97	336	6	B	0	M1
XTP	98	192	0
XTP	98	192	7
TAP	98	288	1
STR	98	336	1
SI_	98	336	1	96	48	4
TAP	99	48	5
TAP	99	96	5
TAP	99	192	3
TAP	99	192	6
TAP	99	288	5
STR	99	336	5
SI_	99	336	5	96	48	0
TAP	100	48	1
TAP	100	96	1
TAP	100	192	2
TAP	100	192	7
TAP	100	288	6
STR	100	336	6
SI_	100	336	6	96	48	3
TAP	101	48	2
TAP	101	96	2
TAP	101	192	1
TAP	101	192	5
TAP	101	240	1
TAP	101	240	5
XTP	101	336	2
XTP	101	336	6
TAP	102	48	1
TAP	102	96	0
TAP	102	144	1
TAP	102	240	0
TAP	102	240	7
TAP	102	336	6
TAP	102	336	7
TAP	103	48	6
TAP	103	96	7
TAP	103	144	6
TAP	103	240	6
TAP	103	240	7
TAP	103	336	0
TAP	103	336	5
TAP	104	48	0
TAP	104	48	1
TAP	104	96	0
TAP	104	96	1
TAP	104	192	2
TAP	104	192	7
TAP	104	288	6
TAP	104	288	7
TAP	104	336	6
TAP	104	336	7
TAP	105	48	0
TAP	105	48	5
TAP	105	96	0
TAP	105	96	5
TAP	105	192	2
TAP	105	192	7
TAP	105	240	2
TAP	105	240	7
TTP	105	336	0	C	1	M1
TTP	105	336	2	B	0	M1
TTP	105	336	2	E	0	M1
TTP	105	336	5	B	0	M1
TTP	105	336	6	E	0	M1

T_REC_TAP	329
T_REC_BRK	0
T_REC_XTP	36
T_REC_HLD	17
T_REC_XHO	0
T_REC_STR	21
T_REC_BST	2
T_REC_XST	0
T_REC_TTP	67
T_REC_THO	0
T_REC_SLD	24
T_REC_ALL	496
T_NUM_TAP	453
T_NUM_BRK	2
T_NUM_HLD	17
T_NUM_SLD	24
T_NUM_ALL	496
T_JUDGE_TAP	455
T_JUDGE_HLD	121
T_JUDGE_SLD	24
T_JUDGE_ALL	600
TTM_EACHPAIRS	102
TTM_SCR_TAP	226500
TTM_SCR_BRK	5200
TTM_SCR_HLD	17000
TTM_SCR_SLD	36000
TTM_SCR_ALL	284700
TTM_SCR_S	276000
TTM_SCR_SS	284500
TTM_RAT_ACV	10007

