VERSION	0.00.00	1.03.00
FES_MODE	0
BPM_DEF	185.000	185.000	185.000	185.000
MET_DEF	4	4
RESOLUTION	384
CLK_DEF	384
COMPATIBLE_CODE	MA2

BPM	0	0	185.000
MET	0	0	4	4

XHO	2	0	2	384
HLD	3	0	3	384
HLD	4	0	4	384
TAP	5	0	5
HLD	6	0	6	384
HLD	7	0	7	384
HLD	8	0	0	384
TAP	9	0	1
TAP	10	0	2
TAP	10	192	2
TAP	10	192	3
TAP	11	0	5
TAP	11	192	4
TAP	11	192	5
TAP	12	0	2
TAP	12	192	2
TAP	12	192	3
TAP	13	0	4
TAP	13	192	3
TAP	13	192	5
TAP	14	0	6
TAP	14	192	6
TAP	14	192	7
TAP	15	0	1
TAP	15	192	0
TAP	15	192	1
TAP	16	0	6
TAP	16	192	6
TAP	16	192	7
TAP	17	0	0
TAP	17	0	7
TAP	17	192	1
TAP	17	192	6
TTP	18	0	2	B	0	L1
TTP	19	0	3	B	0	L1
TTP	20	0	4	B	0	L1
TTP	21	0	5	B	0	L1
XTP	22	0	6
TAP	22	96	6
TAP	22	192	7
TAP	23	0	1
TAP	23	96	1
TAP	23	192	0
TAP	24	0	6
TAP	24	96	6
TAP	24	192	7
TAP	25	0	1
TAP	25	96	1
TAP	25	192	0
TAP	26	0	7
TAP	26	96	7
TAP	26	192	0
TAP	26	288	0
TAP	27	0	0
TAP	27	0	7
TAP	27	96	0
TAP	27	96	7
BRK	27	192	0
BRK	27	192	7
TAP	28	0	1
TAP	28	96	1
TAP	28	192	0
TAP	28	192	1
TAP	28	288	0
TAP	28	288	1
TAP	29	0	2
TAP	29	96	3
TAP	29	192	2
TAP	29	192	4
TAP	30	0	5
TAP	30	96	5
TAP	30	192	4
TAP	30	192	5
TAP	30	288	4
TAP	30	288	5
TAP	31	0	6
TAP	31	96	7
TAP	31	192	0
TAP	31	192	6
TAP	32	0	5
TAP	32	96	5
TAP	32	192	4
TAP	32	192	5
TAP	33	0	2
TAP	33	96	2
TAP	33	192	2
TAP	33	192	3
TAP	34	0	4
TAP	34	96	4
TAP	34	192	3
TAP	34	288	3
TAP	35	0	3
TAP	35	0	4
TAP	35	96	3
TAP	35	96	4
XTP	35	192	2
XTP	35	192	5
TAP	36	0	6
TAP	36	96	6
TAP	36	192	6
TAP	36	192	7
TAP	36	288	6
TAP	36	288	7
TAP	37	0	5
TAP	37	96	4
TAP	37	192	3
TAP	37	192	5
TAP	38	0	2
TAP	38	96	2
TAP	38	192	2
TAP	38	192	3
TAP	38	288	2
TAP	38	288	3
TAP	39	0	1
TAP	39	96	0
TAP	39	192	1
TAP	39	192	7
TAP	40	0	2
TAP	40	96	2
TAP	40	192	2
TAP	40	192	3
TAP	41	0	5
TAP	41	96	5
TAP	41	192	4
TAP	41	192	5
TAP	42	0	6
TAP	42	96	6
TAP	42	192	7
TAP	42	288	7
TAP	43	0	0
TAP	43	0	7
TAP	43	96	0
TAP	43	96	7
XTP	43	192	1
XTP	43	192	6
STR	44	0	2
SI_	44	0	2	96	192	7
STR	45	0	6
SI_	45	0	6	96	192	3
STR	46	0	2
SI_	46	0	2	96	192	7
TAP	47	0	6
TAP	47	96	6
TAP	47	192	6
TAP	47	192	7
STR	48	0	5
SI_	48	0	5	96	192	2
STR	49	0	1
SI_	49	0	1	96	192	5
STR	50	0	7
SI_	50	0	7	96	192	4
TAP	51	0	3
TAP	51	96	3
TAP	51	192	4
TAP	51	288	4
XTP	52	0	2
XTP	52	0	5
TTP	56	0	3	B	0	L1
TTP	56	192	2	B	0	L1
TTP	57	0	1	B	0	L1
TTP	58	0	4	B	0	L1
TTP	58	192	5	B	0	L1
TTP	59	0	6	B	0	L1
TTP	60	0	3	B	0	L1
TTP	60	192	2	B	0	L1
TTP	61	0	1	B	0	L1
TTP	62	0	3	B	0	L1
TTP	62	0	4	B	0	L1
TTP	62	192	2	B	0	L1
TTP	62	192	5	B	0	L1
TTP	63	0	1	B	0	L1
TTP	63	0	6	B	0	L1
HLD	64	0	2	192
TAP	64	192	3
HLD	65	0	5	192
TAP	65	192	4
HLD	66	0	2	192
TAP	66	192	3
HLD	67	0	4	96
HLD	67	0	5	96
TAP	67	192	4
TAP	67	192	5
HLD	68	0	6	192
TAP	68	192	7
HLD	69	0	1	192
TAP	69	192	0
HLD	70	0	6	192
TAP	70	192	7
HLD	71	0	0	96
HLD	71	0	7	96
TAP	71	192	0
TAP	71	192	7
TAP	72	0	6
TAP	72	96	6
TAP	72	192	7
TAP	73	0	1
TAP	73	96	1
TAP	73	192	0
TAP	74	0	6
TAP	74	96	6
TAP	74	192	7
TAP	75	0	0
TAP	75	96	0
TAP	75	192	1
TAP	75	192	7
TAP	76	0	2
TAP	76	96	2
TAP	76	192	3
TAP	77	0	5
TAP	77	96	5
TAP	77	192	4
TAP	78	0	2
TAP	78	96	2
TAP	78	192	3
TAP	79	0	4
TAP	79	96	4
TAP	79	192	3
TAP	79	288	3
STR	80	0	3
SXR	80	0	3	96	480	0
STR	80	0	4
SXL	80	0	4	96	480	7
TTP	84	0	1	E	0	L1
TTP	84	0	7	E	0	L1
TTP	85	0	1	B	0	L1
TTP	85	0	6	B	0	L1
TTP	86	0	2	B	0	L1
TTP	86	0	5	B	0	L1
TTP	87	0	3	E	0	L1
TTP	87	0	5	E	0	L1
THO	88	0	0	384	C	0	L1
BRK	90	0	1
TAP	90	96	0
TAP	90	96	1
TAP	90	192	6
TAP	90	288	6
TAP	90	288	7
TAP	91	0	5
TAP	91	96	4
TAP	91	192	3
TAP	91	192	5
TAP	92	0	2
TAP	92	96	2
TAP	92	96	3
TAP	92	192	5
TAP	92	288	4
TAP	92	288	5
TAP	93	0	6
TAP	93	96	7
TAP	93	192	1
TAP	93	192	6
TAP	94	0	2
TAP	94	96	2
TAP	94	192	2
TAP	94	192	3
TAP	95	0	5
TAP	95	96	5
TAP	95	192	4
TAP	95	192	5
TAP	96	0	6
TAP	96	96	6
TAP	96	192	6
TAP	96	192	7
TAP	97	0	0
TAP	97	96	7
BRK	97	192	1
BRK	97	192	6
TAP	98	0	2
TAP	98	96	2
TAP	98	96	3
TAP	98	192	5
TAP	98	288	4
TAP	98	288	5
TAP	99	0	6
TAP	99	96	7
TAP	99	192	0
TAP	99	192	6
TAP	100	0	1
TAP	100	96	0
TAP	100	96	1
TAP	100	192	6
TAP	100	288	6
TAP	100	288	7
TAP	101	0	5
TAP	101	96	4
TAP	101	192	2
TAP	101	192	5
TAP	102	0	1
TAP	102	96	1
TAP	102	192	0
TAP	102	192	1
TAP	103	0	6
TAP	103	96	6
TAP	103	192	6
TAP	103	192	7
TAP	104	0	1
TAP	104	96	1
TAP	104	192	0
TAP	104	288	0
TAP	105	0	7
TAP	105	96	7
XTP	105	192	0
XTP	105	192	7
XTP	105	288	0
XTP	105	288	7
XTP	106	0	1
XTP	106	0	6

T_REC_TAP	229
T_REC_BRK	5
T_REC_XTP	13
T_REC_HLD	15
T_REC_XHO	1
T_REC_STR	8
T_REC_BST	0
T_REC_XST	0
T_REC_TTP	27
T_REC_THO	1
T_REC_SLD	8
T_REC_ALL	307
T_NUM_TAP	277
T_NUM_BRK	5
T_NUM_HLD	17
T_NUM_SLD	8
T_NUM_ALL	307
T_JUDGE_TAP	282
T_JUDGE_HLD	88
T_JUDGE_SLD	8
T_JUDGE_ALL	378
TTM_EACHPAIRS	63
TTM_SCR_TAP	138500
TTM_SCR_BRK	13000
TTM_SCR_HLD	17000
TTM_SCR_SLD	12000
TTM_SCR_ALL	180500
TTM_SCR_S	174600
TTM_SCR_SS	180000
TTM_RAT_ACV	10027

