VERSION	0.00.00	1.03.00
FES_MODE	0
BPM_DEF	185.000	185.000	185.000	185.000
MET_DEF	4	4
RESOLUTION	384
CLK_DEF	384
COMPATIBLE_CODE	MA2

BPM	0	0	185.000
MET	0	0	4	4

TAP	10	0	4
TAP	11	0	4
TAP	12	0	5
TAP	13	0	5
TAP	14	0	6
TAP	15	0	6
TAP	16	0	7
XTP	17	0	7
STR	18	0	0
SI_	18	0	0	96	288	3
STR	20	0	4
SI_	20	0	4	96	288	7
TAP	22	0	0
TAP	23	0	7
TAP	24	0	6
TAP	25	0	5
HLD	26	0	3	384
HLD	26	0	4	384
TAP	28	0	2
TAP	28	192	2
TAP	29	0	2
TAP	30	0	1
TAP	30	192	1
TAP	31	0	0
TAP	31	0	1
TAP	32	0	7
TAP	32	192	7
TAP	33	0	7
TAP	34	0	6
TAP	34	192	6
BRK	35	0	6
BRK	35	0	7
TAP	36	0	5
TAP	36	192	5
TAP	37	0	5
TAP	38	0	4
TAP	38	192	4
TAP	39	0	3
TAP	39	0	4
TAP	40	0	2
TAP	40	192	2
TAP	41	0	2
TAP	42	0	3
TAP	42	192	3
XTP	43	0	3
XTP	43	0	4
HLD	44	0	5	384
HLD	46	0	4	384
HLD	48	0	3	384
HLD	50	0	2	384
XTP	52	0	3
XTP	52	0	4
TTP	56	0	4	B	0	L1
TTP	57	0	5	B	0	L1
TTP	58	0	6	B	0	L1
TTP	59	0	7	B	0	L1
TTP	60	0	0	B	0	L1
TTP	61	0	1	B	0	L1
TTP	62	0	2	B	0	L1
TTP	63	0	3	B	0	L1
TTP	64	0	4	B	0	L1
TTP	64	0	5	B	0	L1
TTP	66	0	6	B	0	L1
TTP	66	0	7	B	0	L1
TTP	68	0	0	B	0	L1
TTP	68	0	1	B	0	L1
TTP	70	0	2	B	0	L1
TTP	70	0	3	B	0	L1
TAP	72	0	4
TAP	72	192	4
TAP	73	0	4
TAP	73	0	5
TAP	74	0	3
TAP	74	192	3
TAP	75	0	2
TAP	75	0	3
TAP	76	0	1
TAP	76	192	1
TAP	77	0	0
TAP	77	0	1
TAP	78	0	7
TAP	78	192	7
TAP	79	0	0
TAP	79	0	7
STR	80	0	7
SI_	80	0	7	96	288	4
STR	82	0	0
SI_	82	0	0	96	288	3
TAP	84	0	4
TAP	84	192	4
TAP	85	0	5
TAP	85	192	5
TAP	86	0	6
TAP	86	192	6
XTP	87	0	7
HLD	88	0	0	384
HLD	88	0	7	384
XTP	90	0	7
TAP	90	192	7
TAP	91	0	6
TAP	91	96	6
TAP	91	192	6
TAP	92	0	5
TAP	92	192	5
TAP	93	0	4
TAP	93	96	3
XTP	93	192	4
TAP	94	0	3
TAP	94	192	3
TAP	95	0	2
TAP	95	96	2
TAP	95	192	2
TAP	96	0	1
TAP	96	192	1
TAP	97	0	0
TAP	97	96	7
BRK	97	192	0
TAP	98	0	1
TAP	98	192	1
TAP	99	0	2
TAP	99	96	2
TAP	99	192	2
TAP	100	0	3
TAP	100	192	3
TAP	101	0	4
TAP	101	96	3
BRK	101	192	4
TAP	102	0	5
TAP	102	192	5
TAP	103	0	6
TAP	103	96	6
TAP	103	192	6
TAP	104	0	7
TAP	104	192	7
TAP	105	0	0
TAP	105	96	0
XTP	105	192	0
XTP	105	192	7
STR	106	0	0
SI_	106	0	0	96	288	3
STR	106	0	7
SI_	106	0	7	96	288	4

T_REC_TAP	92
T_REC_BRK	4
T_REC_XTP	10
T_REC_HLD	8
T_REC_XHO	0
T_REC_STR	6
T_REC_BST	0
T_REC_XST	0
T_REC_TTP	16
T_REC_THO	0
T_REC_SLD	6
T_REC_ALL	142
T_NUM_TAP	124
T_NUM_BRK	4
T_NUM_HLD	8
T_NUM_SLD	6
T_NUM_ALL	142
T_JUDGE_TAP	128
T_JUDGE_HLD	64
T_JUDGE_SLD	6
T_JUDGE_ALL	198
TTM_EACHPAIRS	13
TTM_SCR_TAP	62000
TTM_SCR_BRK	10400
TTM_SCR_HLD	8000
TTM_SCR_SLD	9000
TTM_SCR_ALL	89400
TTM_SCR_S	86350
TTM_SCR_SS	89000
TTM_RAT_ACV	10044

