VERSION	0.00.00	1.03.00
FES_MODE	0
BPM_DEF	160.000	160.000	160.000	160.000
MET_DEF	4	4
RESOLUTION	384
CLK_DEF	384
COMPATIBLE_CODE	MA2

BPM	0	0	160.000
MET	0	0	4	4

BRK	2	0	3
BST	2	0	4
SCR	2	0	4	96	288	7
THO	2	96	0	288	C	0	M1
TAP	3	144	7
TAP	3	192	0
TAP	3	192	7
TAP	3	288	1
TAP	3	288	6
BST	4	0	3
SCL	4	0	3	96	288	0
BRK	4	0	4
TTP	4	192	5	B	0	M1
TTP	4	192	6	B	0	M1
TTP	4	192	6	E	0	M1
HLD	5	0	7	144
TAP	5	96	0
TAP	5	144	0
TAP	5	240	3
TAP	5	240	6
TAP	5	336	2
TAP	5	336	4
XST	6	0	2
SI_	6	0	2	96	48	4
XTP	6	0	4
TTP	6	96	0	C	0	M1
TAP	6	192	0
STR	6	192	6
SI_	6	192	6	96	48	0
TTP	6	288	0	C	0	M1
STR	7	0	1
SI_	7	0	1	96	48	5
TAP	7	0	5
STR	7	96	6
SI_	7	96	6	96	48	2
TAP	7	192	0
TAP	7	240	0
TAP	7	288	1
TAP	7	288	3
TAP	7	336	2
TAP	8	0	5
TAP	8	48	4
TAP	8	48	6
TAP	8	96	2
TAP	8	144	1
TAP	8	144	3
STR	8	192	4
SCR	8	192	4	96	288	3
TTP	8	288	0	C	1	M1
TAP	9	288	3
TAP	9	288	4
TAP	10	0	3
TAP	10	0	5
XTP	10	48	7
TAP	10	96	4
TAP	10	96	6
XTP	10	144	7
TAP	10	192	3
TAP	10	192	5
XTP	10	240	7
TAP	10	288	4
TAP	10	288	6
XTP	10	336	7
STR	11	0	3
SI_	11	0	3	96	48	0
TAP	11	0	4
TAP	11	48	2
TAP	11	96	3
STR	11	96	4
SI_	11	96	4	96	48	6
TAP	11	144	5
TAP	11	192	2
TAP	11	192	4
TAP	11	240	0
BRK	11	288	1
BRK	11	288	5
TAP	12	0	3
TAP	12	0	5
XTP	12	48	7
TAP	12	96	4
TAP	12	96	6
XTP	12	144	7
TAP	12	192	3
TAP	12	192	5
XTP	12	240	7
TAP	12	288	4
TAP	12	288	6
XTP	12	336	7
STR	13	0	3
SI_	13	0	3	96	48	0
TAP	13	0	4
TAP	13	48	2
TAP	13	96	3
STR	13	96	4
SI_	13	96	4	96	48	6
TAP	13	144	5
TAP	13	192	2
TAP	13	192	4
TAP	13	240	0
BRK	13	288	1
BRK	13	288	5
TAP	14	0	4
TAP	14	0	5
TAP	14	48	3
TAP	14	96	2
TAP	14	96	4
TAP	14	144	1
TAP	14	192	2
TAP	14	192	4
TAP	14	240	3
TAP	14	288	4
TAP	14	288	5
TAP	14	336	6
TAP	15	0	2
STR	15	0	5
SCL	15	0	5	96	48	2
TAP	15	48	1
TAP	15	96	2
TAP	15	96	5
TAP	15	144	1
XTP	15	192	0
XTP	15	192	6
TAP	15	288	3
TAP	15	288	4
TAP	15	336	5
XST	16	0	2
SI_	16	0	2	96	24	7
TAP	16	0	6
TAP	16	72	3
TAP	16	96	2
TAP	16	144	4
TAP	16	192	1
XST	16	192	6
SI_	16	192	6	96	24	3
TAP	16	264	7
TAP	16	288	6
TAP	16	336	0
XST	17	0	1
SI_	17	0	1	96	24	4
XTP	17	0	3
TAP	17	72	7
TAP	17	96	1
TAP	17	144	6
XST	17	192	3
SCL	17	192	3	96	48	0
XTP	17	192	5
TTP	17	288	0	C	1	M1
TAP	18	0	6
TAP	18	0	7
TAP	18	48	5
STR	18	96	4
SI_	18	96	4	96	48	1
TAP	18	96	6
TAP	18	144	5
STR	18	192	7
SI_	18	192	7	96	48	3
HLD	18	288	0	96
TAP	19	0	2
TAP	19	48	3
TAP	19	96	4
STR	19	144	5
SCL	19	144	5	96	48	2
TAP	19	144	7
TAP	19	240	0
TAP	19	288	0
TAP	19	336	1
TAP	20	0	2
TAP	20	0	4
TAP	20	48	5
TAP	20	72	4
TAP	20	96	6
TAP	20	144	2
TAP	20	168	3
TAP	20	192	1
TAP	20	240	0
TAP	20	240	1
TAP	20	288	2
TAP	20	288	7
TAP	20	336	6
TAP	21	0	4
XHO	21	0	5	96
STR	21	96	7
SI_	21	96	7	96	48	3
STR	21	144	0
SI_	21	144	0	96	48	4
BRK	21	192	7
BRK	21	240	0
TAP	21	336	5
HLD	22	0	3	96
STR	22	0	6
SCL	22	0	6	96	48	3
TAP	22	48	7
TAP	22	96	6
HLD	22	192	1	96
BRK	22	288	0
TAP	22	336	2
STR	23	0	1
SCR	23	0	1	96	48	4
HLD	23	0	4	96
TAP	23	48	0
TAP	23	96	1
HLD	23	192	6	96
BRK	23	288	7
TAP	23	336	0
TAP	24	0	0
TAP	24	0	1
TAP	24	48	7
TAP	24	96	6
TAP	24	96	7
TAP	24	144	0
TAP	24	192	0
TAP	24	192	1
TAP	24	240	2
TAP	24	288	3
STR	24	288	4
SSL	24	288	4	96	192	0
TAP	24	336	5
XTP	25	0	6
STR	25	192	6
SI_	25	192	6	96	48	2
BRK	25	288	0
HLD	26	0	1	384
TAP	26	96	3
TAP	26	288	3
HLD	27	0	5	384
TAP	27	96	4
TAP	27	288	4
HLD	28	0	2	384
TTP	28	96	2	E	0	M1
TTP	28	96	3	E	0	M1
TTP	28	288	4	E	0	M1
TTP	28	288	5	E	0	M1
HLD	29	0	5	288
TTP	29	96	5	E	0	M1
TTP	29	96	6	E	0	M1
TAP	29	288	3
XTP	30	0	2
XST	30	0	3
SUR	30	0	3	96	192	1
TTP	30	96	2	E	0	M1
TTP	30	96	3	E	0	M1
TAP	30	288	2
STR	31	0	4
SUL	31	0	4	96	192	6
TAP	31	0	5
TTP	31	96	5	E	0	M1
TTP	31	96	6	E	0	M1
TAP	31	288	5
TAP	32	0	4
HLD	32	0	5	96
TAP	32	96	4
TAP	32	192	1
HLD	32	192	3	96
STR	32	288	1
SCL	32	288	1	96	96	5
STR	33	0	5
SCR	33	0	5	96	96	1
XTP	33	96	3
TAP	33	240	6
TAP	33	288	2
TAP	33	288	6
XHO	34	0	1	96
HLD	34	0	3	96
HLD	34	192	4	96
XHO	34	192	6	96
STR	35	0	7
SI_	35	0	7	96	96	3
STR	35	96	3
SCL	35	96	3	96	96	7
STR	35	192	7
SCL	35	192	7	96	96	3
STR	35	288	3
SCL	35	288	3	96	192	3
TTP	36	0	0	C	1	M1
XTP	36	288	3
STR	36	288	7
SI_	36	288	7	96	48	5
SV_	36	288	7	96	48	4
STR	37	0	7
SI_	37	0	7	96	48	1
SV_	37	0	7	96	48	2
TAP	37	96	7
TAP	37	192	3
TAP	37	192	4
TAP	37	240	5
STR	37	288	0
SI_	37	288	0	96	48	2
SV_	37	288	0	96	48	3
TAP	37	288	6
TAP	37	336	7
STR	38	0	0
SI_	38	0	0	96	48	6
SV_	38	0	0	96	48	5
TAP	38	96	0
TAP	38	192	3
TAP	38	192	4
TAP	38	240	2
STR	38	288	1
SI_	38	288	1	96	48	4
TAP	38	288	7
TAP	38	336	6
STR	39	0	5
SCR	39	0	5	96	48	0
TAP	39	96	0
TAP	39	144	1
XTP	39	192	2
XTP	39	192	7
TAP	39	240	5
TAP	39	264	4
TAP	39	288	5
TAP	39	336	3
STR	39	336	6
SI_	39	336	6	96	48	2
TAP	40	48	0
TAP	40	48	6
STR	40	96	0
SV_	40	96	0	96	48	3
SV_	40	96	0	96	48	5
TAP	40	192	0
BRK	40	288	1
BRK	40	288	7
XST	41	0	3
SF_	41	0	3	96	48	7
TAP	41	96	3
STR	41	192	1
SV_	41	192	1	96	48	3
STR	41	192	5
SV_	41	192	5	96	48	7
TAP	41	240	0
TAP	41	240	4
XST	42	0	2
SI_	42	0	2	96	48	7
XST	42	0	6
SI_	42	0	6	96	48	3
TAP	42	96	2
TAP	42	96	6
BRK	42	192	0
BRK	42	192	4
TAP	42	240	5
TAP	42	288	3
TAP	42	288	6
TAP	42	336	2
STR	43	0	1
SI_	43	0	1	96	48	5
STR	43	0	4
SI_	43	0	4	96	48	7
TAP	43	48	0
BRK	43	96	1
XTP	43	96	4
TAP	43	192	3
STR	43	192	6
SI_	43	192	6	96	48	2
TAP	43	240	7
XTP	43	288	2
BRK	43	288	6
XHO	43	336	0	96
TAP	44	48	7
STR	44	96	1
SI_	44	96	1	96	48	4
STR	44	96	6
SI_	44	96	6	96	48	3
BRK	44	192	1
BRK	44	192	6
TAP	44	288	0
TAP	44	288	5
TAP	44	336	1
TAP	44	336	6
TAP	45	0	2
BST	45	0	7
SLL	45	0	7	96	48	3
TAP	45	96	3
TAP	45	144	1
BST	45	192	0
SLR	45	192	0	96	48	4
TAP	45	288	2
TAP	45	336	5
BST	46	0	6
SLL	46	0	6	96	48	2
TAP	46	96	4
TAP	46	144	1
BST	46	192	0
SLR	46	192	0	96	48	4
TAP	46	288	2
TAP	46	336	5
BST	47	0	7
SSR	47	0	7	96	96	3
TAP	47	96	4
TAP	47	144	2
XHO	47	192	0	96
TAP	47	288	6
TAP	47	336	0
TAP	47	336	7
XTP	48	0	1
TAP	48	16	2
TAP	48	32	3
XTP	48	48	7
TAP	48	64	6
TAP	48	80	5
BRK	48	96	0
BRK	48	96	4
STR	48	192	2
SI_	48	192	2	96	48	6
STR	48	192	6
SI_	48	192	6	96	48	2
TTP	48	288	0	C	0	M1
STR	49	0	0
SCR	49	0	0	96	48	3
XTP	49	0	5
TAP	49	48	6
TAP	49	96	0
TAP	49	96	7
TAP	49	144	6
XTP	49	192	4
STR	49	192	5
SCR	49	192	5	96	48	0
TAP	49	240	3
TAP	49	288	2
TAP	49	288	5
TAP	49	336	1
TAP	50	0	1
TAP	50	0	3
TAP	50	48	2
TAP	50	96	3
TAP	50	96	4
TAP	50	144	5
TAP	50	192	4
TAP	50	192	6
TAP	50	240	3
TAP	50	240	5
STR	50	288	2
SCR	50	288	2	96	96	7
TAP	50	288	4
TAP	50	336	1
XTP	51	0	0
TAP	51	192	2
XTP	51	192	7
TAP	51	240	1
TAP	51	288	0
TAP	51	288	5
TAP	51	336	6
TAP	52	0	2
TAP	52	0	7
TAP	52	48	0
TAP	52	48	5
TAP	52	96	3
TAP	52	96	6
TAP	52	144	1
TAP	52	144	4
BST	52	192	0
SI_	52	192	0	96	48	4
TAP	52	192	7
BST	52	288	0
SCL	52	288	0	96	48	5
SCR	52	288	0	96	48	3
BRK	53	0	0
TTP	53	96	0	C	1	M1
TTP	53	96	3	B	0	M1
TTP	53	96	3	E	0	M1
TTP	53	96	4	B	0	M1
TTP	53	96	4	E	0	M1
TTP	53	96	5	B	0	M1
TTP	53	96	5	E	0	M1
TTP	53	96	6	E	0	M1
STR	53	192	0
SCR	53	192	0	96	48	3
TTP	53	288	2	B	0	M1
TTP	53	288	3	B	0	M1
STR	54	0	7
SCL	54	0	7	96	48	4
TTP	54	96	4	B	0	M1
TTP	54	96	5	B	0	M1
STR	54	192	0
SI_	54	192	0	96	48	4
STR	54	288	4
SF_	54	288	4	96	48	0
BRK	55	96	2
BRK	55	96	6
STR	55	192	1
SI_	55	192	1	96	48	3
STR	55	192	5
SI_	55	192	5	96	48	0
TAP	55	240	0
STR	56	0	2
SI_	56	0	2	96	48	7
STR	56	0	6
SI_	56	0	6	96	48	4
TAP	56	48	7
STR	56	192	0
SI_	56	192	0	96	48	4
BRK	56	288	0
BRK	56	288	3
STR	57	0	2
SI_	57	0	2	96	48	0
XTP	57	0	3
XTP	57	48	1
TAP	57	96	2
STR	57	96	3
SI_	57	96	3	96	48	7
XTP	57	144	4
STR	57	192	2
SI_	57	192	2	96	48	0
TAP	57	192	3
XTP	57	240	1
TAP	57	288	2
TAP	57	288	3
XTP	57	336	4
TAP	58	0	4
STR	58	0	5
SI_	58	0	5	96	48	7
XTP	58	48	6
STR	58	96	4
SI_	58	96	4	96	48	0
TAP	58	96	5
XTP	58	144	3
TAP	58	192	4
STR	58	192	5
SI_	58	192	5	96	48	7
XTP	58	240	6
TAP	58	288	4
TAP	58	288	5
XTP	58	336	3
TAP	59	0	2
TAP	59	0	3
TAP	59	48	1
TAP	59	96	4
TAP	59	96	5
TAP	59	144	6
TAP	59	192	2
TAP	59	192	4
TAP	59	240	0
TAP	59	288	3
TAP	59	288	5
TAP	59	336	7
STR	60	0	0
SI_	60	0	0	96	48	4
STR	60	48	6
SI_	60	48	6	96	48	2
TAP	60	96	0
TAP	60	144	6
STR	60	192	1
SCL	60	192	1	96	48	6
SCR	60	192	1	96	48	4
BRK	60	288	1
THO	61	0	0	672	C	1	M1
TTP	62	288	0	B	0	M1
TTP	62	288	7	B	0	M1
TTP	62	289	6	E	0	M1
TTP	62	290	2	E	0	M1

T_REC_TAP	260
T_REC_BRK	27
T_REC_XTP	36
T_REC_HLD	14
T_REC_XHO	5
T_REC_STR	63
T_REC_BST	9
T_REC_XST	9
T_REC_TTP	35
T_REC_THO	2
T_REC_SLD	88
T_REC_ALL	548
T_NUM_TAP	403
T_NUM_BRK	36
T_NUM_HLD	21
T_NUM_SLD	88
T_NUM_ALL	548
T_JUDGE_TAP	439
T_JUDGE_HLD	81
T_JUDGE_SLD	88
T_JUDGE_ALL	608
TTM_EACHPAIRS	120
TTM_SCR_TAP	201500
TTM_SCR_BRK	93600
TTM_SCR_HLD	21000
TTM_SCR_SLD	132000
TTM_SCR_ALL	448100
TTM_SCR_S	431200
TTM_SCR_SS	444500
TTM_RAT_ACV	10080

