VERSION	0.00.00	1.03.00
FES_MODE	0
BPM_DEF	160.000	160.000	160.000	160.000
MET_DEF	4	4
RESOLUTION	384
CLK_DEF	384
COMPATIBLE_CODE	MA2

BPM	0	0	160.000
MET	0	0	4	4

STR	2	0	3
SUL	2	0	3	96	480	1
STR	2	0	5
SUR	2	0	5	96	480	7
STR	4	0	0
SUR	4	0	0	96	480	2
STR	4	0	6
SUL	4	0	6	96	480	4
TAP	5	288	3
TAP	5	288	5
TAP	6	0	4
TAP	6	0	5
TAP	6	96	6
TAP	6	192	5
TAP	6	240	5
TAP	6	288	3
TAP	7	0	2
TAP	7	0	3
TAP	7	96	1
TAP	7	192	2
TAP	7	240	2
TAP	7	288	4
TAP	8	0	5
TAP	8	48	5
TAP	8	96	2
TAP	8	144	2
STR	8	192	4
SCL	8	192	4	96	192	6
TTP	9	192	0	C	0	M1
TTP	9	192	1	B	0	M1
TTP	9	192	6	B	0	M1
TAP	10	0	4
TAP	10	0	5
TAP	10	48	4
TAP	10	48	5
TAP	10	144	6
TAP	10	144	7
TAP	10	240	4
HLD	10	240	5	144
TAP	10	336	7
TAP	11	0	7
TAP	11	96	0
TAP	11	96	6
TAP	11	192	2
TAP	11	192	4
TAP	11	288	1
TAP	11	288	7
TAP	12	0	2
TAP	12	0	3
TAP	12	48	2
TAP	12	48	3
TAP	12	144	0
TAP	12	144	1
HLD	12	240	2	144
TAP	12	240	3
TAP	12	336	0
TAP	13	0	0
TAP	13	96	1
TAP	13	96	7
TAP	13	192	3
TAP	13	192	5
TAP	13	288	0
TAP	13	288	6
TAP	14	0	7
TAP	14	48	1
TAP	14	96	1
TAP	14	192	2
TAP	14	192	3
TAP	14	288	4
TAP	14	288	5
TAP	15	0	6
TAP	15	48	6
TAP	15	96	0
BRK	15	192	1
BRK	15	192	5
XHO	16	0	5	72
XHO	16	72	4	72
XTP	16	144	3
XHO	16	192	1	72
XHO	16	264	2	72
XTP	16	336	3
XHO	17	0	5	72
XHO	17	72	6	120
XTP	17	144	7
XTP	17	192	7
BRK	17	288	0
BRK	17	288	5
STR	18	0	2
SI_	18	0	2	96	48	0
STR	18	96	7
SI_	18	96	7	96	48	3
TAP	18	192	2
TAP	18	288	0
TAP	18	288	7
TAP	19	0	6
TAP	19	48	6
TAP	19	96	4
HLD	19	144	4	144
TAP	19	240	3
TAP	19	288	3
STR	20	0	5
SI_	20	0	5	96	48	7
STR	20	96	0
SI_	20	96	0	96	48	4
TAP	20	192	5
TAP	20	288	0
TAP	20	288	7
TAP	21	0	1
TAP	21	48	1
HLD	21	96	3	144
TAP	21	192	4
TAP	21	240	4
TAP	21	336	2
TAP	21	336	5
TAP	22	0	2
TAP	22	0	5
STR	22	96	0
SUR	22	96	0	96	96	5
STR	22	96	1
SCR	22	96	1	96	96	4
TAP	23	0	1
TAP	23	0	6
STR	23	96	4
SUR	23	96	4	96	96	1
STR	23	96	5
SCR	23	96	5	96	96	0
TAP	24	0	2
TAP	24	48	2
STR	24	96	4
SSL	24	96	4	96	144	0
STR	25	0	1
SCR	25	0	1	96	144	6
TTP	25	288	0	C	1	M1
HLD	26	0	0	768
TTP	26	96	1	B	0	M1
TTP	26	96	2	E	0	M1
TTP	26	288	0	E	0	M1
TTP	26	288	7	B	0	M1
TTP	27	96	1	B	0	M1
TTP	27	96	2	E	0	M1
TTP	27	288	4	B	0	M1
TTP	27	288	4	E	0	M1
HLD	28	0	7	768
TTP	28	96	6	B	0	M1
TTP	28	96	6	E	0	M1
TTP	28	288	0	B	0	M1
TTP	28	288	0	E	0	M1
TTP	29	96	6	B	0	M1
TTP	29	96	6	E	0	M1
TTP	29	288	3	B	0	M1
TTP	29	288	4	E	0	M1
HLD	30	0	1	768
TTP	30	96	2	B	0	M1
TTP	30	96	3	E	0	M1
TTP	30	288	0	B	0	M1
TTP	30	288	0	E	0	M1
TTP	31	96	2	B	0	M1
TTP	31	96	3	E	0	M1
TTP	31	288	5	B	0	M1
TTP	31	288	5	E	0	M1
HLD	32	0	6	864
TTP	32	96	0	E	0	M1
TTP	32	96	7	B	0	M1
TTP	32	288	5	B	0	M1
TTP	32	288	5	E	0	M1
TTP	33	96	0	E	0	M1
TTP	33	96	7	B	0	M1
TTP	33	288	2	B	0	M1
TTP	33	288	3	E	0	M1
HLD	34	0	1	288
HLD	34	192	3	192
HLD	35	0	2	96
HLD	35	96	0	96
HLD	35	192	7	96
HLD	35	288	5	96
TTP	36	0	0	C	0	M1
STR	36	192	3
SI_	36	192	3	96	48	0
STR	36	192	4
SI_	36	192	4	96	48	7
TAP	37	0	1
TAP	37	0	7
TAP	37	48	2
TAP	37	96	0
TAP	37	96	6
TAP	37	144	5
STR	37	192	1
SCR	37	192	1	96	48	4
STR	37	192	7
SCL	37	192	7	96	48	4
TAP	38	0	3
TAP	38	0	5
TAP	38	48	6
TAP	38	96	2
TAP	38	96	4
TAP	38	144	1
STR	38	192	3
SCL	38	192	3	96	48	0
STR	38	192	5
SCR	38	192	5	96	48	0
TAP	39	0	1
TAP	39	0	7
TAP	39	96	5
TAP	39	144	4
TAP	39	192	2
TAP	39	192	3
TAP	39	288	1
HLD	39	336	1	96
TAP	40	48	3
STR	40	96	3
SCL	40	96	3	96	96	6
SUL	40	96	3	96	96	5
TAP	41	0	0
TAP	41	0	6
TAP	41	48	5
TAP	41	96	1
TAP	41	96	7
TAP	41	144	2
TAP	41	192	0
STR	41	192	6
SV_	41	192	6	96	48	1
SV_	41	192	6	96	48	3
TAP	42	0	2
TAP	42	0	4
TAP	42	48	1
TAP	42	96	3
TAP	42	96	5
TAP	42	144	6
STR	42	192	2
SV_	42	192	2	96	48	5
SV_	42	192	2	96	48	7
TAP	42	192	4
TAP	43	0	0
TAP	43	0	6
TAP	43	96	2
TAP	43	96	4
TAP	43	192	1
TAP	43	192	7
TAP	43	288	3
TAP	43	288	5
TAP	43	336	3
HLD	43	336	5	96
TAP	44	48	7
STR	44	96	7
SF_	44	96	7	96	48	3
BRK	44	288	1
BRK	44	288	5
TTP	45	0	0	C	1	M1
TAP	45	96	0
TAP	45	96	7
TTP	45	192	0	C	1	M1
TAP	45	288	0
TAP	45	288	7
TTP	46	0	0	C	1	M1
TTP	46	0	4	B	0	M1
TTP	46	0	5	B	0	M1
TAP	46	96	0
TAP	46	96	7
TTP	46	192	0	C	1	M1
TTP	46	192	2	B	0	M1
TTP	46	192	3	B	0	M1
TAP	46	288	0
TAP	46	288	7
TTP	47	0	0	C	1	M1
TTP	47	0	2	B	0	M1
TTP	47	0	5	B	0	M1
TAP	47	96	0
TAP	47	96	7
TTP	47	192	0	C	1	M1
TTP	47	192	1	B	0	M1
TTP	47	192	6	B	0	M1
TAP	47	288	0
TAP	47	288	7
THO	48	0	0	96	C	1	M1
TTP	48	0	1	B	0	M1
TTP	48	0	2	B	0	M1
TTP	48	0	5	B	0	M1
TTP	48	0	6	B	0	M1
BRK	48	288	0
BRK	48	288	7
TAP	49	0	3
TAP	49	0	5
TAP	49	48	6
TAP	49	96	2
TAP	49	96	4
STR	49	192	4
SI_	49	192	4	96	48	1
STR	49	192	5
SI_	49	192	5	96	48	0
TAP	50	0	2
TAP	50	0	4
TAP	50	48	1
TAP	50	96	3
TAP	50	96	5
STR	50	192	2
SI_	50	192	2	96	48	7
STR	50	192	3
SI_	50	192	3	96	48	6
TAP	51	0	0
TAP	51	0	7
TAP	51	96	2
TAP	51	96	4
TAP	51	192	0
TAP	51	192	6
TAP	51	288	3
TAP	51	288	5
BRK	52	0	1
BRK	52	0	7
TTP	52	192	5	B	0	M1
TTP	52	192	6	B	0	M1
TTP	52	192	6	E	0	M1
TTP	52	288	1	B	0	M1
TTP	52	288	2	B	0	M1
TTP	52	288	2	E	0	M1
THO	53	0	0	192	C	1	M1
HLD	53	288	7	384
STR	54	96	6
SSR	54	96	6	96	96	2
HLD	55	0	1	192
TAP	55	0	3
HLD	55	96	0	288
STR	55	288	2
SSR	55	288	2	96	96	6
TAP	56	192	3
TAP	56	192	4
TTP	56	288	0	C	0	M1
TAP	57	0	4
TAP	57	0	5
TAP	57	48	4
TAP	57	48	5
TAP	57	144	6
TAP	57	144	7
TAP	57	240	3
TAP	57	240	5
TAP	57	336	1
TAP	57	336	7
TAP	58	0	1
TAP	58	0	7
STR	58	96	3
SI_	58	96	3	96	48	0
STR	58	96	4
SI_	58	96	4	96	48	7
BRK	58	288	1
BRK	58	288	6
TAP	59	0	2
TAP	59	48	2
TAP	59	96	3
TAP	59	144	3
TAP	59	192	4
TAP	59	240	4
TAP	59	288	5
TAP	59	336	5
TAP	60	0	6
TAP	60	48	6
TAP	60	96	7
TAP	60	144	7
TAP	60	192	0
TAP	60	240	0
STR	60	288	1
SCR	60	288	1	96	192	6
THO	61	0	0	192	C	0	M1
TTP	62	0	2	B	0	M1
TTP	62	0	5	B	0	M1
TTP	62	96	2	E	0	M1
TTP	62	96	6	E	0	M1
TTP	62	192	1	B	0	M1
TTP	62	192	6	B	0	M1
BRK	62	288	0
BRK	62	288	7

T_REC_TAP	184
T_REC_BRK	14
T_REC_XTP	4
T_REC_HLD	19
T_REC_XHO	6
T_REC_STR	34
T_REC_BST	0
T_REC_XST	0
T_REC_TTP	68
T_REC_THO	3
T_REC_SLD	37
T_REC_ALL	369
T_NUM_TAP	290
T_NUM_BRK	14
T_NUM_HLD	28
T_NUM_SLD	37
T_NUM_ALL	369
T_JUDGE_TAP	304
T_JUDGE_HLD	141
T_JUDGE_SLD	37
T_JUDGE_ALL	482
TTM_EACHPAIRS	80
TTM_SCR_TAP	145000
TTM_SCR_BRK	36400
TTM_SCR_HLD	28000
TTM_SCR_SLD	55500
TTM_SCR_ALL	264900
TTM_SCR_S	255600
TTM_SCR_SS	263500
TTM_RAT_ACV	10053

