VERSION	0.00.00	1.03.00
FES_MODE	0
BPM_DEF	160.000	160.000	160.000	160.000
MET_DEF	4	4
RESOLUTION	384
CLK_DEF	384
COMPATIBLE_CODE	MA2

BPM	0	0	160.000
MET	0	0	4	4

STR	2	0	1
SCR	2	0	1	96	384	5
STR	4	0	6
SCL	4	0	6	96	384	2
TAP	6	0	1
TAP	6	96	1
TAP	6	192	0
TAP	7	0	6
TAP	7	96	6
TAP	7	192	7
TAP	8	0	0
TAP	8	96	0
TAP	8	192	7
TAP	8	288	7
XST	9	0	0
SI_	9	0	0	96	144	4
XST	9	0	7
SI_	9	0	7	96	144	3
TAP	10	0	2
TAP	10	96	2
TAP	10	192	2
TAP	10	192	3
STR	11	0	2
SI_	11	0	2	96	144	7
TAP	12	0	6
TAP	12	96	6
TAP	12	192	6
TAP	12	192	7
STR	13	0	6
SI_	13	0	6	96	144	2
TAP	14	0	1
TAP	14	96	1
TAP	14	192	0
TAP	14	192	1
TAP	15	0	6
TAP	15	96	6
TAP	15	192	6
TAP	15	192	7
TAP	16	0	0
TAP	16	96	0
TAP	16	192	7
TAP	16	288	7
XTP	17	0	0
XTP	17	0	7
XTP	17	96	0
XTP	17	96	7
XTP	17	192	1
XTP	17	192	6
HLD	18	0	2	192
TAP	18	192	3
TAP	19	0	5
TAP	19	96	5
TAP	19	192	4
TAP	19	192	5
HLD	20	0	2	192
TAP	20	192	3
TAP	21	0	4
TAP	21	96	4
TAP	21	192	3
TAP	21	192	5
TAP	22	0	6
TAP	22	96	6
TAP	22	192	6
TAP	23	0	1
TAP	23	96	1
TAP	23	192	1
TAP	24	0	7
TAP	24	96	7
TAP	24	192	0
TAP	24	288	0
STR	25	0	0
SCR	25	0	0	96	144	3
STR	25	0	7
SCL	25	0	7	96	144	4
TTP	26	0	3	B	0	L1
TTP	26	192	2	B	0	L1
TTP	27	0	1	B	0	L1
TTP	28	0	4	B	0	L1
TTP	28	192	5	B	0	L1
TTP	29	0	6	B	0	L1
TTP	30	0	1	B	0	L1
TTP	30	192	2	B	0	L1
TTP	31	0	3	B	0	L1
TTP	32	0	6	B	0	L1
TTP	32	192	5	B	0	L1
TTP	33	0	3	B	0	L1
TTP	33	0	4	B	0	L1
TTP	34	0	2	B	0	L1
TTP	34	0	5	B	0	L1
THO	35	0	0	384	C	0	L1
TTP	35	0	1	B	0	L1
TTP	35	0	6	B	0	L1
BRK	37	0	0
BRK	37	0	1
XTP	37	96	0
XTP	37	96	1
XTP	37	192	2
XTP	37	192	7
TAP	38	0	6
TAP	38	0	7
TAP	38	96	6
TAP	38	96	7
TAP	38	192	0
TAP	38	192	5
TAP	39	0	1
TAP	39	96	1
TAP	39	192	2
TAP	39	288	2
TAP	40	0	3
TAP	40	96	3
TAP	40	192	2
TAP	40	192	4
BRK	41	0	4
BRK	41	0	5
TAP	41	96	4
TAP	41	96	5
TAP	41	192	3
TAP	41	192	6
TAP	42	0	2
TAP	42	0	3
TAP	42	96	2
TAP	42	96	3
TAP	42	192	1
TAP	42	192	4
TAP	43	0	5
TAP	43	96	5
TAP	43	192	6
TAP	43	288	6
TAP	44	0	7
TAP	44	96	7
TAP	44	192	0
TAP	44	192	6
TTP	45	0	2	B	0	L1
TTP	45	0	3	B	0	L1
TTP	45	192	0	B	0	L1
TTP	45	192	1	B	0	L1
TTP	46	0	6	B	0	L1
TTP	46	0	7	B	0	L1
TTP	46	192	4	B	0	L1
TTP	46	192	5	B	0	L1
TTP	47	0	2	B	0	L1
TTP	47	0	3	B	0	L1
TTP	47	192	0	B	0	L1
TTP	47	192	1	B	0	L1
TTP	48	0	6	B	0	L1
TTP	48	0	7	B	0	L1
TTP	48	192	4	B	0	L1
TTP	48	192	5	B	0	L1
XTP	49	0	2
TAP	49	96	2
TAP	49	192	2
TAP	49	192	3
TAP	50	0	5
TAP	50	96	5
TAP	50	192	4
TAP	50	192	5
TAP	51	0	6
TAP	51	96	6
TAP	51	192	7
TAP	51	288	7
TAP	52	0	0
TAP	52	96	0
TAP	52	192	1
TAP	52	192	6
HLD	53	0	2	192
HLD	53	192	3	192
HLD	54	0	4	192
XTP	54	192	5
HLD	55	0	6	192
HLD	55	192	7	192
HLD	56	0	0	192
XTP	56	192	1
TAP	57	0	2
TAP	57	96	2
TAP	57	192	3
TAP	58	0	5
TAP	58	96	5
TAP	58	192	4
TAP	59	0	3
TAP	59	96	3
TAP	59	192	4
TAP	59	288	4
TAP	60	0	3
TAP	60	0	4
TAP	60	96	3
TAP	60	96	4
TAP	60	192	2
TAP	60	192	5
THO	61	0	0	672	C	1	L1

T_REC_TAP	113
T_REC_BRK	4
T_REC_XTP	13
T_REC_HLD	8
T_REC_XHO	0
T_REC_STR	6
T_REC_BST	0
T_REC_XST	2
T_REC_TTP	33
T_REC_THO	2
T_REC_SLD	8
T_REC_ALL	189
T_NUM_TAP	167
T_NUM_BRK	4
T_NUM_HLD	10
T_NUM_SLD	8
T_NUM_ALL	189
T_JUDGE_TAP	171
T_JUDGE_HLD	54
T_JUDGE_SLD	8
T_JUDGE_ALL	233
TTM_EACHPAIRS	31
TTM_SCR_TAP	83500
TTM_SCR_BRK	10400
TTM_SCR_HLD	10000
TTM_SCR_SLD	12000
TTM_SCR_ALL	115900
TTM_SCR_S	112050
TTM_SCR_SS	115500
TTM_RAT_ACV	10034

