VERSION	0.00.00	1.03.00
FES_MODE	0
BPM_DEF	210.000	210.000	210.000	125.000
MET_DEF	4	4
RESOLUTION	384
CLK_DEF	384
COMPATIBLE_CODE	MA2

BPM	0	0	210.000
BPM	9	0	136.000
BPM	9	96	130.000
BPM	9	168	129.000
BPM	9	192	125.000
BPM	9	288	210.000
MET	0	0	4	4

STR	8	288	0
SCR	8	288	0	96	192	7
STR	8	288	4
SXR	8	288	4	96	192	7
BRK	9	288	0
TAP	10	0	3
STR	10	0	5
SI_	10	0	5	96	48	0
TAP	10	96	4
TAP	10	144	4
TAP	10	240	7
TAP	10	288	7
TAP	10	336	3
STR	11	0	2
SI_	11	0	2	96	48	7
TAP	11	0	4
TAP	11	96	3
TAP	11	144	3
TAP	11	240	0
TAP	11	288	0
TAP	11	336	4
TAP	12	0	3
STR	12	0	5
SI_	12	0	5	96	48	0
STR	12	96	1
SI_	12	96	1	96	48	4
STR	12	192	6
SI_	12	192	6	96	48	3
STR	12	288	2
SI_	12	288	2	96	48	7
STR	13	0	5
SI_	13	0	5	96	48	2
STR	13	96	1
SI_	13	96	1	96	48	6
TAP	13	192	4
XTP	13	288	0
XTP	13	288	5
STR	14	0	2
SI_	14	0	2	96	48	7
TAP	14	0	4
TAP	14	96	3
TAP	14	144	3
TAP	14	240	0
TAP	14	288	0
TAP	14	336	4
TAP	15	0	3
STR	15	0	5
SI_	15	0	5	96	48	0
TAP	15	96	4
TAP	15	144	4
TAP	15	240	7
TAP	15	288	7
TAP	15	336	3
STR	16	0	2
SI_	16	0	2	96	48	7
TAP	16	0	4
STR	16	96	6
SI_	16	96	6	96	48	3
STR	16	192	1
SI_	16	192	1	96	48	4
STR	16	288	5
SI_	16	288	5	96	48	0
STR	17	0	2
SI_	17	0	2	96	48	5
STR	17	96	6
SI_	17	96	6	96	48	1
TAP	17	192	3
XTP	17	288	2
XTP	17	288	7
HLD	18	0	5	96
HLD	18	96	7	96
TAP	18	192	2
TAP	18	240	2
TAP	18	288	0
TAP	18	336	0
TAP	19	0	7
TAP	19	48	7
STR	19	96	4
SXL	19	96	4	96	96	6
SXR	19	96	4	96	96	2
TAP	20	0	2
TAP	20	48	2
TAP	20	96	0
TAP	20	144	0
HLD	20	192	5	96
HLD	20	288	7	96
STR	21	0	2
SCR	21	0	2	96	96	6
STR	21	96	6
SCR	21	96	6	96	96	2
TAP	21	192	2
TAP	21	288	6
HLD	22	0	5	96
STR	22	96	7
SUR	22	96	7	96	96	0
XHO	23	0	7	96
XHO	23	96	5	96
XHO	23	192	3	96
XHO	23	288	1	96
TAP	24	0	0
TAP	24	48	0
TAP	24	96	2
TAP	24	144	2
TAP	24	192	4
TAP	24	240	3
STR	24	288	6
SI_	24	288	6	96	48	1
STR	25	0	2
SI_	25	0	2	96	48	5
STR	25	96	6
SI_	25	96	6	96	48	2
TAP	25	192	1
XTP	25	288	0
XTP	25	288	4
TAP	26	0	2
TAP	26	48	2
TAP	26	96	0
TAP	26	144	0
TAP	26	192	5
TAP	26	240	5
TAP	26	288	7
STR	27	0	0
SCR	27	0	0	96	48	3
STR	27	0	6
SCL	27	0	6	96	48	3
STR	27	192	1
SCR	27	192	1	96	48	4
STR	27	192	7
SCL	27	192	7	96	48	4
TAP	28	0	5
TAP	28	48	5
TAP	28	96	7
TAP	28	144	7
HLD	28	192	2	96
HLD	28	288	0	96
STR	29	0	5
SCL	29	0	5	96	96	1
STR	29	96	1
SCL	29	96	1	96	96	5
TAP	29	192	5
TAP	29	288	1
HLD	30	0	2	96
TAP	30	0	3
TAP	30	96	0
TAP	30	192	4
HLD	30	192	5	96
TAP	30	288	7
TAP	31	0	1
TAP	31	0	3
TAP	31	48	2
TAP	31	96	4
TAP	31	96	6
TAP	31	144	5
TAP	31	192	2
TAP	31	192	3
STR	31	288	4
SCL	31	288	4	96	48	1
TAP	31	288	5
HLD	32	0	6	96
TAP	32	96	7
TAP	32	144	7
TAP	32	240	1
TAP	32	240	5
TAP	32	336	2
TAP	32	336	6
TAP	33	0	0
STR	33	48	0
SSL	33	48	0	96	144	4
BRK	33	144	3
STR	34	0	1
SCR	34	0	1	96	192	5
TAP	34	192	7
TAP	34	288	7
STR	35	0	6
SCL	35	0	6	96	192	2
TAP	35	192	0
TAP	35	288	0
STR	36	0	1
SCR	36	0	1	96	192	5
TTP	36	192	0	B	0	M1
TTP	36	192	0	E	0	M1
TTP	36	288	3	B	0	M1
TTP	36	288	4	B	0	M1
STR	37	0	6
SCL	37	0	6	96	192	2
TTP	37	192	0	E	0	M1
TTP	37	192	7	B	0	M1
TTP	37	288	3	B	0	M1
TTP	37	288	4	B	0	M1
STR	38	0	0
SI_	38	0	0	96	48	4
TAP	38	48	0
TAP	38	96	5
STR	38	192	7
SI_	38	192	7	96	48	3
TAP	38	240	7
TAP	38	288	2
TAP	39	0	0
HLD	39	48	0	240
TAP	39	96	7
HLD	39	144	7	144
TTP	40	0	0	B	0	M1
TTP	40	0	0	C	1	M1
TTP	40	0	3	B	0	M1
TTP	40	0	4	B	0	M1
TTP	40	0	7	B	0	M1
XTP	41	0	0
XTP	41	0	7
XST	41	48	3
SI_	41	48	3	96	48	0
XST	41	48	4
SI_	41	48	4	96	48	7
XTP	41	144	3
XTP	41	144	4
TTP	41	156	4	E	0	M1
TTP	41	168	0	C	1	M1
TTP	41	180	0	E	0	M1
TAP	42	0	2
STR	42	0	7
SCR	42	0	7	96	48	2
TAP	42	96	4
STR	42	144	4
SI_	42	144	4	96	48	1
SI_	42	144	4	96	48	7
TAP	42	240	4
TAP	42	336	0
STR	43	0	7
SI_	43	0	7	96	48	3
STR	43	48	1
SI_	43	48	1	96	48	5
TAP	43	96	7
TAP	43	144	1
BRK	43	192	0
TAP	43	288	1
TAP	43	288	7
TAP	44	0	3
STR	44	0	6
SI_	44	0	6	96	48	3
TAP	44	96	0
STR	44	144	1
SI_	44	144	1	96	48	5
HLD	44	240	6	96
TAP	44	336	2
BRK	45	0	1
BRK	45	0	5
BRK	45	48	2
BRK	45	48	6
BRK	45	96	1
BRK	45	96	5
BST	45	144	2
SXL	45	144	2	96	48	4
BST	45	144	6
SV_	45	144	6	96	48	3
STR	46	0	0
SCR	46	0	0	96	48	3
TAP	46	0	4
TAP	46	96	6
STR	46	144	7
SI_	46	144	7	96	48	2
SI_	46	144	7	96	48	4
TAP	46	240	7
TAP	46	336	1
STR	47	0	3
SI_	47	0	3	96	48	6
STR	47	48	0
SI_	47	48	0	96	48	4
TAP	47	96	3
TAP	47	144	0
BRK	47	192	7
TAP	47	288	2
TAP	47	288	6
STR	48	0	1
SI_	48	0	1	96	48	4
TAP	48	48	0
TAP	48	96	7
STR	48	144	6
SI_	48	144	6	96	48	3
TAP	48	192	7
TAP	48	240	0
STR	48	288	1
SI_	48	288	1	96	48	4
TAP	48	336	0
TAP	49	0	7
TAP	49	48	6
TAP	49	96	7
TAP	49	144	1
TAP	49	144	6
STR	49	192	0
SI_	49	192	0	96	48	4
STR	49	192	7
SI_	49	192	7	96	48	3
XTP	49	288	0
XTP	49	288	7
STR	50	0	0
SCL	50	0	0	96	48	5
TAP	50	0	5
TAP	50	96	3
STR	50	144	3
SI_	50	144	3	96	48	0
SI_	50	144	3	96	48	6
TAP	50	240	3
TAP	50	336	7
STR	51	0	0
SI_	51	0	0	96	48	4
STR	51	48	6
SI_	51	48	6	96	48	2
TAP	51	96	0
TAP	51	144	6
BRK	51	192	7
TAP	51	288	0
TAP	51	288	6
STR	52	0	1
SI_	52	0	1	96	48	4
TAP	52	48	5
TAP	52	96	6
STR	52	144	7
SI_	52	144	7	96	48	3
HLD	52	240	1	96
TAP	52	336	6
BRK	53	0	2
BRK	53	0	5
BRK	53	48	1
BRK	53	48	6
BRK	53	96	2
BRK	53	96	5
BST	53	144	1
SXL	53	144	1	96	48	3
BST	53	144	6
SV_	53	144	6	96	48	0
TAP	54	0	2
STR	54	0	7
SCL	54	0	7	96	48	4
TAP	54	96	0
STR	54	144	0
SI_	54	144	0	96	48	3
SI_	54	144	0	96	48	5
TAP	54	240	0
TAP	54	336	6
STR	55	0	4
SI_	55	0	4	96	48	1
STR	55	48	7
SI_	55	48	7	96	48	3
TAP	55	96	4
TAP	55	144	7
BRK	55	192	0
TAP	55	288	1
TAP	55	288	6
STR	56	0	5
SCL	56	0	5	96	48	2
TAP	56	48	7
TAP	56	96	0
STR	56	144	1
SV_	56	144	1	96	48	6
TAP	56	192	0
TAP	56	240	7
STR	56	288	5
SCL	56	288	5	96	48	2
TAP	56	336	7
TAP	57	0	0
TAP	57	48	1
TAP	57	96	0
TAP	57	144	1
TAP	57	144	6
STR	57	192	0
SI_	57	192	0	96	48	4
STR	57	192	7
SI_	57	192	7	96	48	3
XTP	57	288	0
XTP	57	288	7
STR	58	0	1
SI_	58	0	1	96	48	5
TAP	58	0	5
TAP	58	96	1
STR	58	96	6
SI_	58	96	6	96	48	2
STR	58	192	3
SI_	58	192	3	96	48	0
TAP	58	192	6
TAP	58	288	3
TAP	58	288	7
BRK	59	0	1
BRK	59	0	6
BRK	59	48	1
BRK	59	48	6
TTP	59	288	0	C	0	M1
TTP	59	288	2	B	0	M1
TTP	59	288	2	E	0	M1
TTP	59	288	5	B	0	M1
TTP	59	288	6	E	0	M1
TAP	60	0	7
TAP	60	96	7
TAP	60	192	6
TAP	60	288	3
TAP	60	288	5
TTP	61	0	3	E	0	M1
TAP	61	0	5
TTP	61	96	4	E	0	M1
TAP	61	96	5
TTP	61	192	2	E	0	M1
TAP	61	192	5
TTP	61	288	0	E	0	M1
TAP	61	288	5
TAP	62	0	2
TAP	62	96	2
TAP	62	192	2
TAP	62	192	4
TAP	62	288	2
TAP	62	288	4
TAP	63	0	2
TTP	63	0	5	E	0	M1
TAP	63	96	2
TTP	63	96	4	E	0	M1
HLD	63	192	2	48
TTP	63	192	6	E	0	M1
TTP	63	288	0	E	0	M1
TAP	64	0	4
TAP	64	96	5
HLD	64	144	5	96
HLD	64	240	7	96
TAP	64	336	0
TAP	65	0	0
TAP	65	48	2
TAP	65	96	2
TAP	65	144	4
TAP	65	192	4
TAP	65	240	3
TAP	65	288	5
TAP	65	336	5
TAP	66	0	2
HLD	66	48	1	48
HLD	66	48	3	48
TAP	66	144	5
HLD	66	192	4	48
HLD	66	192	6	48
TAP	66	288	1
HLD	66	336	0	48
HLD	66	336	3	48
TAP	67	48	6
STR	67	96	4
SSL	67	96	4	96	96	0
TAP	67	96	7
TAP	68	0	0
TAP	68	24	7
TAP	68	48	0
STR	68	96	4
SCL	68	96	4	96	48	1
TAP	68	96	6
TAP	68	192	5
TAP	68	288	3
TAP	68	288	6
TAP	68	336	7
TAP	68	360	0
TAP	69	0	7
TAP	69	96	1
STR	69	96	3
SCR	69	96	3	96	48	6
TAP	69	192	2
TAP	69	240	2
TAP	69	288	1
TAP	69	288	4
TAP	70	0	7
TAP	70	24	0
TAP	70	48	7
TAP	70	96	1
TAP	70	96	6
TAP	70	144	2
TAP	70	192	2
TAP	70	216	3
TAP	70	240	1
TAP	70	288	0
TAP	70	288	4
TAP	70	336	5
TAP	71	0	5
TAP	71	24	4
TAP	71	48	6
TAP	71	96	3
TAP	71	96	7
TAP	71	144	2
TAP	71	192	0
TAP	71	216	7
TAP	71	240	0
TAP	71	264	7
TAP	71	288	1
TAP	71	288	6
TAP	72	0	2
TAP	72	32	3
TAP	72	64	2
TAP	72	96	5
TAP	72	128	4
TAP	72	160	5
TAP	72	192	2
TAP	72	224	3
TAP	72	256	1
TAP	72	288	5
TAP	72	320	4
TAP	72	352	6
TAP	73	0	0
TAP	73	24	7
TAP	73	48	1
TAP	73	72	6
TAP	73	96	2
TAP	73	120	5
TAP	73	144	3
TAP	73	168	4
STR	73	192	3
SI_	73	192	3	96	48	0
XTP	73	288	3
TAP	73	288	5
TAP	74	0	5
TAP	74	32	4
TAP	74	64	5
TAP	74	96	2
TAP	74	128	3
TAP	74	160	2
TAP	74	192	5
TAP	74	224	4
TAP	74	256	6
TAP	74	288	2
TAP	74	320	3
TAP	74	352	1
TAP	75	0	5
TAP	75	48	4
TAP	75	48	6
TAP	75	96	2
TAP	75	144	1
TAP	75	144	3
TAP	75	192	0
TAP	75	216	7
TAP	75	240	1
TAP	75	264	6
TAP	75	288	2
TAP	75	312	5
TAP	75	336	3
TAP	75	360	4
BRK	76	0	0
TTP	76	336	4	E	0	M1
TTP	76	360	3	E	0	M1
TTP	77	0	2	E	0	M1
TTP	77	336	4	E	0	M1
TTP	77	360	5	E	0	M1
TTP	78	0	6	E	0	M1
TTP	78	336	4	E	0	M1
TTP	78	360	3	E	0	M1
TTP	79	0	2	E	0	M1
TAP	79	288	4
TAP	79	336	4
BRK	80	0	2
BRK	80	0	6
TAP	80	96	3
TAP	80	192	3
TAP	80	288	3
TAP	80	336	3
BRK	81	0	1
BRK	81	0	5
TAP	81	96	4
TAP	81	192	4
TAP	81	288	4
TAP	81	336	4
BRK	82	0	2
BRK	82	0	6
TAP	83	0	3
TAP	83	0	5
TAP	83	48	6
TAP	83	96	2
TAP	83	96	4
TAP	83	144	1
TAP	83	192	3
TAP	83	192	4
TAP	83	288	2
TAP	83	312	3
TAP	83	336	1
STR	84	0	0
SLL	84	0	0	96	48	4
TAP	84	0	5
TAP	84	96	3
STR	84	144	3
SI_	84	144	3	96	48	0
SI_	84	144	3	96	48	6
TAP	84	240	3
TAP	84	336	7
STR	85	0	0
SI_	85	0	0	96	48	4
STR	85	48	6
SI_	85	48	6	96	48	2
TAP	85	96	0
TAP	85	144	6
BRK	85	192	7
TAP	85	288	0
TAP	85	288	6
STR	86	0	1
SI_	86	0	1	96	48	4
TAP	86	0	4
TAP	86	96	7
STR	86	144	6
SI_	86	144	6	96	48	2
HLD	86	240	1	96
TAP	86	336	5
BRK	87	0	2
BRK	87	0	6
BRK	87	48	1
BRK	87	48	5
BRK	87	96	2
BRK	87	96	6
BRK	87	144	1
BRK	87	144	5
TAP	87	240	3
TAP	87	264	4
TAP	87	288	3
TAP	87	336	6
TAP	88	0	2
STR	88	0	7
SLL	88	0	7	96	48	3
TAP	88	96	0
STR	88	144	0
SI_	88	144	0	96	48	3
SI_	88	144	0	96	48	5
TAP	88	240	0
TAP	88	336	6
STR	89	0	4
SI_	89	0	4	96	48	1
STR	89	48	7
SI_	89	48	7	96	48	3
TAP	89	96	4
TAP	89	144	7
BRK	89	192	0
TAP	89	288	1
TAP	89	288	5
STR	90	0	6
SI_	90	0	6	96	48	2
TAP	90	48	7
TAP	90	96	0
STR	90	144	1
SI_	90	144	1	96	48	5
TAP	90	192	0
TAP	90	240	7
STR	90	288	6
SI_	90	288	6	96	48	2
TAP	90	336	7
TAP	91	0	0
TAP	91	48	1
TAP	91	96	0
TAP	91	144	1
TAP	91	144	6
STR	91	192	0
SI_	91	192	0	96	48	4
STR	91	192	7
SI_	91	192	7	96	48	3
XTP	91	288	0
XTP	91	288	7
TAP	92	0	2
STR	92	0	7
SLR	92	0	7	96	48	3
TAP	92	96	4
STR	92	144	4
SI_	92	144	4	96	48	1
SI_	92	144	4	96	48	7
TAP	92	240	4
TAP	92	336	0
STR	93	0	7
SI_	93	0	7	96	48	3
STR	93	48	1
SI_	93	48	1	96	48	5
TAP	93	96	7
TAP	93	144	1
BRK	93	192	0
TAP	93	288	1
TAP	93	288	4
STR	94	0	6
SI_	94	0	6	96	48	3
TAP	94	48	2
TAP	94	96	1
STR	94	144	0
SI_	94	144	0	96	48	4
HLD	94	240	6	96
TAP	94	336	1
BRK	95	0	2
BRK	95	0	5
BRK	95	48	1
BRK	95	48	6
BRK	95	96	2
BRK	95	96	5
BRK	95	144	1
BRK	95	144	6
TAP	95	240	3
TAP	95	264	4
TAP	95	288	3
TAP	95	336	1
STR	96	0	0
SLR	96	0	0	96	48	4
TAP	96	0	5
TAP	96	96	7
STR	96	144	7
SI_	96	144	7	96	48	2
SI_	96	144	7	96	48	4
TAP	96	240	7
TAP	96	336	1
STR	97	0	3
SI_	97	0	3	96	48	6
STR	97	48	0
SI_	97	48	0	96	48	4
TAP	97	96	3
TAP	97	144	0
BRK	97	192	7
TAP	97	288	1
TAP	97	288	6
STR	98	0	2
SI_	98	0	2	96	48	5
TAP	98	48	0
TAP	98	96	7
STR	98	144	6
SI_	98	144	6	96	48	3
TAP	98	192	7
TAP	98	240	0
STR	98	288	1
SI_	98	288	1	96	48	5
TAP	98	336	0
TAP	99	0	7
TAP	99	48	6
TAP	99	96	7
TAP	99	144	1
TAP	99	144	6
STR	99	192	0
SI_	99	192	0	96	48	4
STR	99	192	7
SI_	99	192	7	96	48	3
XTP	99	288	0
XTP	99	288	7
TAP	100	0	2
STR	100	0	6
SI_	100	0	6	96	48	2
STR	100	96	1
SI_	100	96	1	96	48	5
TAP	100	96	6
TAP	100	192	1
STR	100	192	4
SI_	100	192	4	96	48	7
TAP	100	288	0
TAP	100	288	4
TAP	101	0	0
TAP	101	0	6
TAP	101	48	4
TAP	101	96	2
TAP	101	96	5
TAP	101	144	3
TAP	101	192	4
TAP	101	192	6
TAP	101	240	5
TAP	101	288	3
TAP	101	288	4
TAP	101	336	2
STR	102	0	1
SI_	102	0	1	96	48	5
TAP	102	0	5
TAP	102	96	1
STR	102	96	6
SI_	102	96	6	96	48	2
STR	102	192	3
SI_	102	192	3	96	48	0
TAP	102	192	6
TAP	102	288	3
TAP	102	288	7
TAP	103	0	1
TAP	103	0	7
TAP	103	48	3
TAP	103	96	2
TAP	103	96	5
TAP	103	144	4
TAP	103	192	1
TAP	103	192	3
TAP	103	240	2
TAP	103	288	3
TAP	103	288	4
TAP	103	336	5
TAP	104	0	2
STR	104	0	6
SI_	104	0	6	96	48	2
STR	104	96	1
SI_	104	96	1	96	48	5
TAP	104	96	6
TAP	104	192	1
TAP	104	192	4
TAP	104	288	0
TAP	104	312	7
TAP	104	336	0
BRK	105	0	1
BRK	105	0	6
BRK	105	48	1
BRK	105	48	6
TAP	105	288	3
TAP	105	288	4
STR	106	0	2
SI_	106	0	2	96	48	7
TAP	106	0	5
TAP	106	96	3
TAP	106	144	3
TAP	106	240	0
TAP	106	288	6
TAP	106	336	4
STR	107	0	5
SI_	107	0	5	96	48	0
TAP	107	48	3
TAP	107	96	4
TAP	107	144	4
TAP	107	240	7
TAP	107	264	0
TAP	107	288	7
TAP	107	336	3
STR	108	0	2
SI_	108	0	2	96	48	7
TAP	108	48	2
STR	108	96	6
SI_	108	96	6	96	48	3
TAP	108	144	6
STR	108	192	1
SI_	108	192	1	96	48	4
TAP	108	240	1
STR	108	288	5
SI_	108	288	5	96	48	0
TAP	108	336	5
STR	109	0	2
SI_	109	0	2	96	48	5
TAP	109	48	2
STR	109	96	7
SI_	109	96	7	96	48	2
TAP	109	144	7
STR	109	192	1
SI_	109	192	1	96	48	5
TAP	109	240	1
STR	109	288	6
SI_	109	288	6	96	48	2
TAP	109	336	6
STR	110	0	7
SI_	110	0	7	96	48	3
TAP	110	48	7
STR	110	96	0
SI_	110	96	0	96	48	4
TAP	110	144	0
STR	110	192	1
SI_	110	192	1	96	48	5
TAP	110	240	1
STR	110	288	7
SCR	110	288	7	96	960	6
BRK	110	336	7

T_REC_TAP	426
T_REC_BRK	54
T_REC_XTP	19
T_REC_HLD	25
T_REC_XHO	4
T_REC_STR	128
T_REC_BST	4
T_REC_XST	2
T_REC_TTP	38
T_REC_THO	0
T_REC_SLD	143
T_REC_ALL	843
T_NUM_TAP	613
T_NUM_BRK	58
T_NUM_HLD	29
T_NUM_SLD	143
T_NUM_ALL	843
T_JUDGE_TAP	671
T_JUDGE_HLD	55
T_JUDGE_SLD	143
T_JUDGE_ALL	869
TTM_EACHPAIRS	122
TTM_SCR_TAP	306500
TTM_SCR_BRK	150800
TTM_SCR_HLD	29000
TTM_SCR_SLD	214500
TTM_SCR_ALL	700800
TTM_SCR_S	674150
TTM_SCR_SS	695000
TTM_RAT_ACV	10083

