VERSION	0.00.00	1.03.00
FES_MODE	0
BPM_DEF	210.000	210.000	210.000	125.000
MET_DEF	4	4
RESOLUTION	384
CLK_DEF	384
COMPATIBLE_CODE	MA2

BPM	0	0	210.000
BPM	9	0	136.000
BPM	9	96	130.000
BPM	9	168	129.000
BPM	9	192	125.000
BPM	9	288	210.000
MET	0	0	4	4

TTP	2	0	2	B	0	M1
TTP	3	0	3	B	0	M1
TTP	4	0	4	B	0	M1
TTP	5	0	5	B	0	M1
TTP	6	0	6	E	0	M1
TTP	7	0	4	E	0	M1
TTP	8	0	2	E	0	M1
TTP	9	0	0	C	0	M1
BRK	9	288	3
BRK	9	288	4
TAP	10	0	2
TAP	10	96	3
TAP	10	192	2
TAP	10	288	1
TAP	10	288	4
TAP	11	0	5
TAP	11	96	4
TAP	11	192	5
TAP	11	288	3
TAP	11	288	6
TAP	12	0	7
TAP	12	96	0
TAP	12	192	7
TAP	12	288	1
TAP	12	288	6
TAP	13	0	5
TAP	13	96	4
TAP	13	96	6
TAP	13	192	2
TAP	13	288	1
TAP	13	288	3
TAP	14	0	5
TAP	14	96	4
TAP	14	192	5
TAP	14	288	3
TAP	14	288	6
TAP	15	0	2
TAP	15	96	3
TAP	15	192	2
TAP	15	288	1
TAP	15	288	4
TAP	16	0	0
TAP	16	96	7
TAP	16	192	0
TAP	16	288	1
TAP	16	288	6
TAP	17	0	2
TAP	17	0	5
TAP	17	96	3
TAP	17	96	4
XTP	17	192	1
XTP	17	192	6
HLD	18	0	2	96
TAP	18	96	3
TAP	18	192	3
TAP	18	192	4
TAP	18	288	4
TAP	18	288	5
HLD	19	0	6	96
TAP	19	96	7
TAP	19	144	7
TAP	19	192	6
TAP	19	288	0
TAP	19	288	5
TAP	20	0	1
TAP	20	96	2
TAP	20	96	3
TAP	20	192	4
TAP	20	288	2
TAP	20	288	3
STR	21	0	1
SCR	21	0	1	96	144	4
TAP	21	288	5
HLD	22	0	6	96
TAP	22	96	7
HLD	22	192	5	96
TAP	22	288	4
HLD	23	0	2	96
TAP	23	96	3
HLD	23	192	1	96
TAP	23	288	0
TAP	24	0	2
TAP	24	0	7
TAP	24	96	1
TAP	24	144	1
TAP	24	192	0
TAP	24	288	6
TAP	24	336	6
TAP	25	0	7
TAP	25	96	0
TAP	25	96	5
TAP	25	192	1
TAP	25	192	4
XTP	25	288	2
XTP	25	288	3
HLD	26	0	5	96
TAP	26	96	4
TAP	26	192	3
TAP	26	192	4
TAP	26	288	2
TAP	26	288	3
TTP	27	0	0	B	0	M1
THO	27	0	0	192	C	0	M1
TTP	27	0	1	B	0	M1
TTP	27	0	7	B	0	M1
TAP	28	0	6
TAP	28	96	4
TAP	28	96	5
TAP	28	192	3
TAP	28	288	4
TAP	28	288	5
STR	29	0	6
SCL	29	0	6	96	144	3
TAP	29	288	2
HLD	30	0	1	96
TAP	30	96	0
HLD	30	192	2	96
TAP	30	288	3
HLD	31	0	5	96
TAP	31	96	4
HLD	31	192	6	96
TAP	31	288	7
TAP	32	0	5
TAP	32	96	3
TAP	32	96	4
TAP	32	192	2
STR	32	288	3
SCL	32	288	3	96	144	0
STR	32	288	4
SCR	32	288	4	96	144	7
XTP	33	288	1
XTP	33	288	6
HLD	34	0	2	192
TTP	34	192	0	C	0	M1
TAP	35	0	6
TAP	35	96	4
TAP	35	96	5
TTP	35	192	0	B	0	M1
TTP	35	192	7	B	0	M1
HLD	36	0	5	192
TTP	36	192	0	C	0	M1
TAP	37	0	1
TAP	37	96	2
TAP	37	96	3
TTP	37	192	0	B	0	M1
TTP	37	192	7	B	0	M1
TAP	38	0	6
TAP	38	48	6
TAP	38	96	7
TAP	38	192	1
TAP	38	240	1
TAP	38	288	0
TAP	39	0	7
TAP	39	48	7
STR	39	96	0
SCL	39	96	0	96	144	5
SCR	39	96	0	96	144	3
TTP	40	0	0	B	0	M1
TTP	40	0	0	C	1	M1
TTP	40	0	4	B	0	M1
XTP	41	0	3
XTP	41	0	4
XTP	41	48	3
XTP	41	48	4
BRK	41	144	1
BRK	41	144	6
TAP	42	0	0
TAP	42	0	7
TAP	42	96	2
TAP	42	96	4
TAP	42	192	0
TAP	42	192	7
TAP	42	288	3
TAP	42	288	5
TAP	43	0	0
TAP	43	48	0
STR	43	96	7
SI_	43	96	7	96	96	3
XTP	43	192	0
TAP	44	0	2
TAP	44	96	1
TAP	44	96	3
TAP	44	192	5
TAP	44	288	4
TAP	44	288	6
XTP	45	0	7
XTP	45	48	7
XTP	45	96	0
XST	45	144	0
SI_	45	144	0	96	96	4
TAP	46	0	3
TAP	46	0	5
TAP	46	96	0
TAP	46	96	7
TAP	46	192	2
TAP	46	192	4
TAP	46	288	0
TAP	46	288	7
TAP	47	0	3
TAP	47	0	5
TAP	47	96	3
TAP	47	96	5
TAP	47	192	2
TAP	47	192	6
TAP	47	288	0
XTP	48	0	6
XTP	48	0	7
XTP	48	48	6
XTP	48	48	7
XTP	48	144	0
XTP	48	144	1
XTP	48	192	0
XTP	48	192	1
XTP	48	288	3
XTP	48	288	4
XTP	48	336	3
XTP	48	336	4
XST	49	48	1
SI_	49	48	1	96	96	3
XST	49	48	6
SI_	49	48	6	96	96	4
XTP	49	96	1
XTP	49	96	6
BRK	49	288	0
BRK	49	288	7
TAP	50	0	1
TAP	50	0	6
TAP	50	96	4
TAP	50	96	5
TAP	50	192	1
TAP	50	192	6
TAP	50	288	2
TAP	50	288	3
TAP	51	0	7
TAP	51	48	7
STR	51	96	0
SI_	51	96	0	96	96	4
XTP	51	192	7
TAP	52	0	5
TAP	52	96	4
TAP	52	96	6
TAP	52	192	2
TAP	52	288	1
TAP	52	288	3
XTP	53	0	0
XTP	53	48	0
XTP	53	96	7
XST	53	144	7
SI_	53	144	7	96	96	3
TAP	54	0	2
TAP	54	0	4
TAP	54	96	6
TAP	54	96	7
TAP	54	192	3
TAP	54	192	5
TAP	54	288	0
TAP	54	288	1
TAP	55	0	2
TAP	55	0	4
TAP	55	96	2
TAP	55	96	4
TAP	55	192	1
TAP	55	192	5
TAP	55	288	7
XTP	56	0	0
XTP	56	0	1
XTP	56	48	0
XTP	56	48	1
XTP	56	144	6
XTP	56	144	7
XTP	56	192	6
XTP	56	192	7
XTP	56	288	3
XTP	56	288	4
XTP	56	336	3
XTP	56	336	4
XST	57	48	1
SI_	57	48	1	96	96	3
XST	57	48	6
SI_	57	48	6	96	96	4
XTP	57	96	1
XTP	57	96	6
BRK	57	288	0
BRK	57	288	7
HLD	58	0	1	96
HLD	58	96	0	96
HLD	58	192	7	96
HLD	58	288	6	96
TTP	59	0	0	C	1	M1
TAP	60	0	2
XHO	60	0	7	288
TAP	60	96	2
TAP	60	192	2
TAP	60	288	2
TAP	61	0	1
XHO	61	0	3	288
TAP	61	96	1
TAP	61	192	1
TAP	61	288	1
XHO	62	0	0	288
TAP	62	0	5
TAP	62	96	5
TAP	62	192	5
TAP	62	288	5
XHO	63	0	4	288
TAP	63	0	6
TAP	63	96	6
TAP	63	192	6
TAP	63	288	6
TTP	64	0	2	B	0	M1
TTP	64	96	4	E	0	M1
TTP	64	192	5	B	0	M1
TTP	64	288	7	E	0	M1
TTP	65	0	0	B	0	M1
TTP	65	96	2	E	0	M1
TTP	65	192	3	B	0	M1
TTP	65	288	5	E	0	M1
TTP	66	0	6	B	0	M1
TTP	66	96	0	E	0	M1
TTP	66	192	1	B	0	M1
TTP	66	288	3	E	0	M1
THO	67	0	0	192	C	0	M1
STR	68	0	5
SCR	68	0	5	96	240	2
HLD	69	0	0	192
TAP	69	192	7
TAP	69	240	7
XTP	69	288	0
TAP	70	0	1
TAP	70	48	1
XTP	70	96	0
TAP	70	192	6
TAP	70	240	6
XTP	70	288	7
TAP	71	0	0
TAP	71	48	0
XST	71	96	7
SI_	71	96	7	96	96	3
TAP	72	0	0
TAP	72	0	1
TAP	72	96	0
TAP	72	96	1
TAP	72	192	6
TAP	72	192	7
TAP	72	288	6
TAP	72	288	7
TAP	73	0	4
TAP	73	0	5
TAP	73	96	4
TAP	73	96	6
TAP	73	192	2
TAP	73	192	3
TAP	73	288	1
TAP	73	288	3
TAP	74	0	0
TAP	74	0	4
TAP	74	96	1
TAP	74	96	5
TAP	74	192	2
TAP	74	192	6
TAP	74	288	3
TAP	74	288	7
TAP	75	0	0
TAP	75	0	4
STR	75	96	1
SXR	75	96	1	96	192	1
STR	75	96	5
SXR	75	96	5	96	192	5
TAP	80	0	3
XHO	80	0	4	288
TAP	80	96	2
TAP	80	192	1
TAP	80	288	0
XHO	81	0	3	288
TAP	81	0	7
TAP	81	96	6
TAP	81	192	5
TAP	81	288	4
BRK	82	0	1
BRK	82	0	6
TAP	83	0	0
TAP	83	48	0
TAP	83	96	7
TAP	83	144	7
TAP	83	192	0
XTP	83	288	2
XTP	83	288	5
TAP	84	0	0
TAP	84	0	7
TAP	84	96	4
TAP	84	96	6
TAP	84	192	0
TAP	84	192	7
TAP	84	288	1
TAP	84	288	3
TAP	85	0	7
TAP	85	48	7
STR	85	96	0
SI_	85	96	0	96	96	4
XTP	85	192	7
TAP	86	0	4
TAP	86	0	5
TAP	86	96	1
TAP	86	96	4
TAP	86	192	2
TAP	86	192	3
TAP	86	288	3
TAP	86	288	6
XTP	87	0	0
XTP	87	48	0
XTP	87	96	7
XST	87	144	7
SI_	87	144	7	96	96	3
TAP	88	0	2
TAP	88	0	4
TAP	88	96	0
TAP	88	96	7
TAP	88	192	3
TAP	88	192	5
TAP	88	288	0
TAP	88	288	7
TAP	89	0	2
TAP	89	48	2
TAP	89	96	3
TAP	89	192	1
TAP	89	192	4
TAP	89	288	3
TAP	89	288	6
XTP	90	0	0
XTP	90	0	1
XTP	90	48	0
XTP	90	48	1
XTP	90	144	6
XTP	90	144	7
XTP	90	192	6
XTP	90	192	7
XTP	90	288	3
XTP	90	288	4
XTP	90	336	3
XTP	90	336	4
XST	91	48	1
SCR	91	48	1	96	96	3
XST	91	48	6
SCL	91	48	6	96	96	4
XTP	91	96	1
XTP	91	96	6
BRK	91	288	0
BRK	91	288	7
TAP	92	0	1
TAP	92	0	6
TAP	92	96	0
TAP	92	96	4
TAP	92	192	1
TAP	92	192	6
TAP	92	288	3
TAP	92	288	7
TAP	93	0	0
TAP	93	48	0
STR	93	96	7
SI_	93	96	7	96	96	3
XTP	93	192	0
TAP	94	0	2
TAP	94	0	3
TAP	94	96	3
TAP	94	96	7
TAP	94	192	4
TAP	94	192	5
TAP	94	288	0
TAP	94	288	4
XTP	95	0	7
XTP	95	48	7
XTP	95	96	0
XST	95	144	0
SI_	95	144	0	96	96	4
TAP	96	0	3
TAP	96	0	5
TAP	96	96	0
TAP	96	96	1
TAP	96	192	2
TAP	96	192	4
TAP	96	288	6
TAP	96	288	7
TAP	97	0	5
TAP	97	48	5
TAP	97	96	4
TAP	97	192	3
TAP	97	192	6
TAP	97	288	1
TAP	97	288	4
XTP	98	0	6
XTP	98	0	7
XTP	98	48	6
XTP	98	48	7
XTP	98	144	0
XTP	98	144	1
XTP	98	192	0
XTP	98	192	1
XTP	98	288	3
XTP	98	288	4
XTP	98	336	3
XTP	98	336	4
XST	99	48	1
SCR	99	48	1	96	96	3
XST	99	48	6
SCL	99	48	6	96	96	4
XTP	99	96	1
XTP	99	96	6
BRK	99	288	0
BRK	99	288	7
HLD	100	0	1	96
HLD	100	96	2	96
HLD	100	192	3	96
TAP	100	288	4
TAP	101	0	6
TAP	101	48	6
TAP	101	96	3
TAP	101	144	3
TAP	101	192	4
TAP	101	240	4
TAP	101	288	1
TAP	101	336	1
HLD	102	0	6	96
HLD	102	96	5	96
HLD	102	192	4	96
TAP	102	288	3
TAP	103	0	1
TAP	103	48	1
TAP	103	96	4
TAP	103	144	4
TAP	103	192	3
TAP	103	240	3
TAP	103	288	6
TAP	103	336	6
HLD	104	0	2	96
HLD	104	96	3	96
HLD	104	192	4	96
TAP	104	288	5
TTP	105	0	0	B	0	M1
TTP	105	0	0	C	1	M1
TTP	105	0	1	B	0	M1
TTP	105	0	6	B	0	M1
TTP	105	0	7	B	0	M1
TAP	106	0	1
TAP	106	96	0
TAP	106	192	1
TAP	106	288	2
TAP	106	288	7
TAP	107	0	6
TAP	107	96	7
TAP	107	192	6
TAP	107	288	0
TAP	107	288	5
TAP	108	0	3
TAP	108	96	4
TAP	108	192	3
TAP	108	288	1
TAP	108	288	6
XTP	109	0	3
XTP	109	0	4
TAP	109	96	4
TAP	109	96	5
TAP	109	192	2
TAP	109	192	4
TAP	109	288	4
TAP	109	288	6
XTP	110	0	3
XTP	110	0	4
TAP	110	96	4
TAP	110	96	6
TAP	110	192	1
TAP	110	192	4
STR	110	288	4
SCR	110	288	4	96	960	3
TAP	110	288	7

T_REC_TAP	343
T_REC_BRK	14
T_REC_XTP	91
T_REC_HLD	27
T_REC_XHO	6
T_REC_STR	13
T_REC_BST	0
T_REC_XST	13
T_REC_TTP	38
T_REC_THO	2
T_REC_SLD	27
T_REC_ALL	574
T_NUM_TAP	498
T_NUM_BRK	14
T_NUM_HLD	35
T_NUM_SLD	27
T_NUM_ALL	574
T_JUDGE_TAP	512
T_JUDGE_HLD	104
T_JUDGE_SLD	27
T_JUDGE_ALL	643
TTM_EACHPAIRS	156
TTM_SCR_TAP	249000
TTM_SCR_BRK	36400
TTM_SCR_HLD	35000
TTM_SCR_SLD	40500
TTM_SCR_ALL	360900
TTM_SCR_S	348750
TTM_SCR_SS	359500
TTM_RAT_ACV	10038

