VERSION	0.00.00	1.03.00
FES_MODE	0
BPM_DEF	210.000	210.000	210.000	125.000
MET_DEF	4	4
RESOLUTION	384
CLK_DEF	384
COMPATIBLE_CODE	MA2

BPM	0	0	210.000
BPM	9	0	136.000
BPM	9	96	130.000
BPM	9	168	129.000
BPM	9	192	125.000
BPM	9	288	210.000
MET	0	0	4	4

XHO	2	0	2	384
HLD	3	0	3	384
HLD	4	0	4	384
XTP	5	0	5
HLD	6	0	6	384
HLD	7	0	7	384
HLD	8	0	0	384
XST	9	0	1
SV_	9	0	1	96	144	4
XTP	10	0	5
TAP	10	96	5
TAP	10	192	4
TAP	11	0	2
TAP	11	96	2
TAP	11	192	3
TAP	12	0	5
TAP	12	96	5
TAP	12	192	4
TAP	13	0	3
TAP	13	96	3
TAP	13	192	2
TAP	13	192	4
TAP	14	0	1
TAP	14	96	1
TAP	14	192	0
TAP	15	0	6
TAP	15	96	6
TAP	15	192	7
TAP	16	0	1
TAP	16	96	1
TAP	16	192	0
XTP	17	0	7
XTP	17	96	0
XTP	17	192	1
XTP	17	192	6
HLD	18	0	2	192
TAP	18	192	3
HLD	19	0	5	192
TAP	19	192	4
HLD	20	0	2	192
TAP	20	192	3
HLD	21	0	4	96
HLD	21	0	5	96
TAP	21	192	4
TAP	21	192	5
STR	22	0	6
SI_	22	0	6	96	144	3
STR	23	0	2
SI_	23	0	2	96	144	7
TAP	24	0	6
TAP	24	96	6
TAP	24	192	6
TAP	24	192	7
TAP	25	0	0
TAP	25	96	7
XTP	25	192	1
XTP	25	192	6
HLD	26	0	6	192
TAP	26	192	7
HLD	27	0	1	192
TAP	27	192	0
HLD	28	0	6	192
TAP	28	192	7
HLD	29	0	0	96
HLD	29	0	1	96
TAP	29	192	0
TAP	29	192	1
STR	30	0	2
SI_	30	0	2	96	144	7
STR	31	0	6
SI_	31	0	6	96	144	3
TAP	32	0	2
TAP	32	96	2
TAP	32	192	2
TAP	32	192	3
TAP	33	0	4
TAP	33	96	3
XTP	33	192	2
XTP	33	192	5
STR	34	0	1
SI_	34	0	1	96	144	5
STR	35	0	6
SCL	35	0	6	96	144	3
STR	36	0	2
SCL	36	0	2	96	144	7
STR	37	0	5
SI_	37	0	5	96	144	0
TAP	38	0	1
TAP	38	96	1
TAP	38	192	0
TAP	39	0	6
TAP	39	96	6
TAP	39	192	7
TAP	40	0	0
TAP	40	96	0
TAP	40	192	7
TAP	40	288	7
TAP	41	0	0
TAP	41	0	7
TAP	41	96	0
TAP	41	96	7
TAP	41	192	1
TAP	41	192	6
BRK	42	0	1
TAP	42	96	1
TAP	42	192	0
TAP	42	288	0
TAP	43	0	7
TAP	43	96	7
TAP	43	192	0
TAP	43	192	6
TAP	44	0	5
TAP	44	96	5
TAP	44	192	4
TAP	44	288	4
XTP	45	0	3
XTP	45	0	4
XTP	45	96	3
XTP	45	96	4
XTP	45	192	2
XTP	45	192	5
TAP	46	0	1
TAP	46	96	1
TAP	46	192	0
TAP	46	288	0
TAP	47	0	7
TAP	47	96	7
TAP	47	192	0
TAP	47	192	6
HLD	48	0	5	192
HLD	48	192	4	192
HLD	49	0	3	192
TAP	49	192	2
TAP	50	0	2
TAP	50	96	2
TAP	50	192	3
TAP	50	288	3
TAP	51	0	4
TAP	51	96	4
TAP	51	192	3
TAP	51	192	5
TAP	52	0	6
TAP	52	96	6
TAP	52	192	7
TAP	52	288	7
XTP	53	0	0
XTP	53	0	7
XTP	53	96	0
XTP	53	96	7
XTP	53	192	1
XTP	53	192	6
TAP	54	0	1
TAP	54	96	1
TAP	54	192	0
TAP	54	288	0
TAP	55	0	7
TAP	55	96	7
TAP	55	192	0
TAP	55	192	6
HLD	56	0	6	192
HLD	56	192	7	192
HLD	57	0	0	192
TAP	57	192	1
TAP	58	0	1
TAP	58	96	1
TAP	58	192	0
TAP	58	288	0
TAP	59	0	0
TAP	59	0	7
TAP	59	96	0
TAP	59	96	7
BRK	59	192	1
BRK	59	192	6
STR	60	0	1
SI_	60	0	1	96	144	4
XTP	61	0	5
XTP	61	192	3
XTP	61	192	4
STR	62	0	2
SI_	62	0	2	96	144	7
XTP	63	0	6
XTP	63	192	0
XTP	63	192	7
STR	64	0	1
SI_	64	0	1	96	144	5
STR	65	0	6
SI_	65	0	6	96	144	3
STR	66	0	2
SI_	66	0	2	96	144	7
STR	67	0	6
SCL	67	0	6	96	144	3
TAP	68	0	2
TAP	68	96	2
TAP	68	192	2
TAP	68	192	3
TAP	69	0	5
TAP	69	96	5
TAP	69	192	4
TAP	69	192	5
TAP	70	0	6
TAP	70	96	6
TAP	70	192	7
TAP	70	288	7
TAP	71	0	0
TAP	71	96	0
TAP	71	192	1
TAP	71	192	7
TAP	72	0	6
TAP	72	96	6
TAP	72	192	6
TAP	72	192	7
TAP	73	0	1
TAP	73	96	1
TAP	73	192	0
TAP	73	192	1
TAP	74	0	2
TAP	74	96	2
TAP	74	192	3
TAP	74	288	3
XTP	75	0	3
XTP	75	0	4
XTP	75	96	3
XTP	75	96	4
XTP	75	192	2
XTP	75	192	5
TTP	76	0	2	B	0	L1
TTP	77	0	3	B	0	L1
TTP	78	0	4	B	0	L1
TTP	79	0	5	B	0	L1
TTP	80	0	1	B	0	L1
TTP	80	0	6	B	0	L1
TTP	81	0	2	B	0	L1
TTP	81	0	5	B	0	L1
THO	82	0	0	384	C	0	L1
BRK	84	0	1
TAP	84	96	1
TAP	84	192	0
TAP	84	192	1
TAP	84	288	0
TAP	84	288	1
TAP	85	0	2
TAP	85	96	3
TAP	85	192	4
TAP	85	192	5
TAP	86	0	6
TAP	86	96	6
TAP	86	192	6
TAP	86	192	7
TAP	86	288	6
TAP	86	288	7
TAP	87	0	5
TAP	87	96	4
TAP	87	192	2
TAP	87	192	3
TAP	88	0	1
TAP	88	96	1
TAP	88	192	0
TAP	88	192	1
TAP	88	288	0
TAP	88	288	1
TAP	89	0	2
TAP	89	96	3
TAP	89	192	4
TAP	89	192	5
HLD	90	0	6	192
HLD	90	192	7	192
HLD	91	0	0	192
TAP	91	192	1
TAP	92	0	2
TAP	92	96	2
TAP	92	192	2
TAP	92	192	3
TAP	92	288	2
TAP	92	288	3
TAP	93	0	4
TAP	93	96	4
TAP	93	192	3
TAP	93	192	5
TAP	94	0	5
TAP	94	96	5
TAP	94	192	4
TAP	94	192	5
TAP	94	288	4
TAP	94	288	5
XTP	95	0	3
XTP	95	96	3
XTP	95	96	4
XTP	95	192	2
XTP	95	192	5
TAP	96	0	2
TAP	96	96	2
TAP	96	192	2
TAP	96	192	3
TAP	96	288	2
TAP	96	288	3
TAP	97	0	4
TAP	97	96	4
TAP	97	192	3
TAP	97	192	5
HLD	98	0	5	192
HLD	98	192	4	192
HLD	99	0	3	192
TAP	99	192	2
TAP	100	0	1
TAP	100	96	1
TAP	100	192	0
TAP	100	288	0
TAP	101	0	7
TAP	101	96	7
TAP	101	192	0
TAP	101	192	6
TAP	102	0	5
TAP	102	96	5
TAP	102	192	4
TAP	102	288	4
TAP	103	0	3
TAP	103	96	3
TAP	103	192	2
TAP	103	192	4
TAP	104	0	1
TAP	104	96	1
TAP	104	192	0
TAP	104	288	0
TAP	105	0	7
TAP	105	96	7
BRK	105	192	1
BRK	105	192	6
TAP	106	0	2
TAP	106	96	2
TAP	106	192	3
TAP	107	0	5
TAP	107	96	5
TAP	107	192	4
TAP	108	0	2
TAP	108	96	2
TAP	108	192	3
TAP	108	288	3
XTP	109	0	4
XTP	109	96	4
XTP	109	192	5
XTP	109	288	5
XTP	110	0	6
XTP	110	96	6
XTP	110	192	7
XST	110	288	7
SSR	110	288	7	96	576	3

T_REC_TAP	225
T_REC_BRK	6
T_REC_XTP	46
T_REC_HLD	27
T_REC_XHO	1
T_REC_STR	14
T_REC_BST	0
T_REC_XST	2
T_REC_TTP	8
T_REC_THO	1
T_REC_SLD	16
T_REC_ALL	346
T_NUM_TAP	295
T_NUM_BRK	6
T_NUM_HLD	29
T_NUM_SLD	16
T_NUM_ALL	346
T_JUDGE_TAP	301
T_JUDGE_HLD	136
T_JUDGE_SLD	16
T_JUDGE_ALL	453
TTM_EACHPAIRS	58
TTM_SCR_TAP	147500
TTM_SCR_BRK	15600
TTM_SCR_HLD	29000
TTM_SCR_SLD	24000
TTM_SCR_ALL	216100
TTM_SCR_S	209050
TTM_SCR_SS	215500
TTM_RAT_ACV	10027

