VERSION	0.00.00	1.03.00
FES_MODE	0
BPM_DEF	210.000	210.000	210.000	125.000
MET_DEF	4	4
RESOLUTION	384
CLK_DEF	384
COMPATIBLE_CODE	MA2

BPM	0	0	210.000
BPM	9	0	136.000
BPM	9	96	130.000
BPM	9	168	129.000
BPM	9	192	125.000
BPM	9	288	210.000
MET	0	0	4	4

XTP	10	0	4
TAP	11	0	4
HLD	12	0	5	384
TAP	14	0	6
TAP	15	0	6
HLD	16	0	7	384
TAP	18	0	0
TAP	19	0	0
HLD	20	0	0	384
TAP	22	0	1
TAP	23	0	1
TAP	24	0	1
TAP	24	192	1
XTP	25	0	1
TAP	26	0	2
TAP	27	0	2
HLD	28	0	2	384
TAP	30	0	3
TAP	31	0	3
TAP	32	0	3
TAP	32	0	4
TAP	32	192	3
TAP	32	192	4
XTP	33	0	3
XTP	33	0	4
TTP	34	0	4	B	0	L1
TTP	35	0	3	B	0	L1
TTP	36	0	5	B	0	L1
TTP	37	0	2	B	0	L1
THO	38	0	0	768	C	1	L1
TAP	42	0	7
TAP	42	192	7
TAP	43	0	7
TAP	44	0	6
TAP	44	192	6
TAP	45	0	6
TAP	46	0	5
TAP	46	192	5
TAP	47	0	5
TAP	48	0	4
TAP	48	192	4
XTP	49	0	3
XTP	49	0	4
TAP	50	0	3
TAP	50	192	3
TAP	51	0	3
TAP	52	0	2
TAP	52	192	2
TAP	53	0	2
TAP	54	0	1
TAP	54	192	1
TAP	55	0	1
TAP	56	0	0
TAP	56	192	0
TAP	57	0	0
TAP	57	0	7
HLD	58	0	0	192
HLD	58	0	7	192
XTP	59	0	1
XTP	59	0	6
STR	60	0	0
SI_	60	0	0	96	480	4
TAP	63	0	7
STR	64	0	7
SI_	64	0	7	96	480	3
TAP	67	0	0
TAP	68	0	0
TAP	68	192	0
TAP	69	0	1
TAP	69	192	1
HLD	70	0	2	384
HLD	70	0	3	384
TAP	72	0	4
TAP	72	192	4
TAP	73	0	5
TAP	73	192	5
HLD	74	0	6	384
HLD	74	0	7	384
XTP	76	0	0
XTP	76	0	7
TAP	80	0	0
TAP	80	0	1
TAP	81	0	6
TAP	81	0	7
BRK	82	0	0
BRK	82	0	7
TAP	84	0	0
TAP	84	192	0
TAP	85	0	0
TAP	85	96	0
TAP	85	192	0
TAP	86	0	1
TAP	86	192	1
HLD	87	0	0	192
HLD	87	0	1	192
TAP	88	0	2
TAP	88	192	2
TAP	89	0	2
TAP	89	96	2
TAP	89	192	2
HLD	90	0	3	192
HLD	90	0	4	192
TAP	91	0	3
TAP	91	96	4
TAP	91	192	3
TAP	92	0	4
TAP	92	192	4
TAP	93	0	4
TAP	93	96	4
TAP	93	192	4
TAP	94	0	5
TAP	94	192	5
HLD	95	0	4	192
HLD	95	0	5	192
TAP	96	0	6
TAP	96	192	6
TAP	97	0	6
TAP	97	96	6
TAP	97	192	6
HLD	98	0	0	192
HLD	98	0	7	192
TAP	99	0	0
TAP	99	96	7
BRK	99	192	0
HLD	100	0	0	192
HLD	100	0	1	192
TAP	101	0	7
TAP	101	96	7
TAP	101	192	7
HLD	102	0	6	192
HLD	102	0	7	192
TAP	103	0	0
TAP	103	96	0
TAP	103	192	0
HLD	104	0	0	192
HLD	104	0	7	192
TAP	105	0	0
TAP	105	0	7
TAP	105	96	0
TAP	105	96	7
TAP	105	192	0
TAP	105	192	7
STR	106	0	0
SI_	106	0	0	96	480	3
STR	106	0	7
SI_	106	0	7	96	480	4
TAP	109	0	3
TAP	109	96	3
TAP	109	192	2
TAP	109	192	4
TAP	110	0	4
TAP	110	96	4
TAP	110	192	3
TAP	110	192	5
XTP	111	0	3
XTP	111	0	4

T_REC_TAP	104
T_REC_BRK	3
T_REC_XTP	12
T_REC_HLD	24
T_REC_XHO	0
T_REC_STR	4
T_REC_BST	0
T_REC_XST	0
T_REC_TTP	4
T_REC_THO	1
T_REC_SLD	4
T_REC_ALL	156
T_NUM_TAP	124
T_NUM_BRK	3
T_NUM_HLD	25
T_NUM_SLD	4
T_NUM_ALL	156
T_JUDGE_TAP	127
T_JUDGE_HLD	144
T_JUDGE_SLD	4
T_JUDGE_ALL	275
TTM_EACHPAIRS	27
TTM_SCR_TAP	62000
TTM_SCR_BRK	7800
TTM_SCR_HLD	25000
TTM_SCR_SLD	6000
TTM_SCR_ALL	100800
TTM_SCR_S	97500
TTM_SCR_SS	100500
TTM_RAT_ACV	10029

