VERSION	0.00.00	1.03.00
FES_MODE	0
BPM_DEF	152.000	152.000	152.000	152.000
MET_DEF	4	4
RESOLUTION	384
CLK_DEF	384
COMPATIBLE_CODE	MA2

BPM	0	0	152.000
MET	0	0	4	4

BRK	1	288	3
BRK	1	288	4
TAP	2	0	3
TAP	2	0	5
TAP	2	48	2
TAP	2	96	3
TAP	2	96	4
TAP	2	144	2
TAP	2	192	3
HLD	2	192	6	72
HLD	2	264	5	72
STR	2	336	4
SI_	2	336	4	96	48	6
TAP	3	48	3
TAP	3	96	2
TAP	3	144	1
TAP	3	192	0
TAP	3	192	7
TAP	3	288	1
TAP	3	288	6
TAP	4	0	2
TAP	4	0	4
TAP	4	48	5
TAP	4	96	3
TAP	4	96	4
TAP	4	144	5
HLD	4	192	1	72
TAP	4	192	4
HLD	4	264	2	72
STR	4	336	3
SI_	4	336	3	96	48	1
TAP	5	48	4
TAP	5	96	5
TAP	5	144	6
TAP	5	192	0
TAP	5	192	7
TAP	5	288	1
TAP	5	288	6
XTP	6	0	3
XTP	6	0	5
TAP	6	48	2
TAP	6	96	3
TAP	6	96	6
TAP	6	144	2
TAP	6	192	3
HLD	6	192	4	72
HLD	6	264	5	72
STR	6	336	6
SI_	6	336	6	96	48	4
TAP	7	48	2
TAP	7	96	2
TAP	7	144	1
TAP	7	192	0
TAP	7	192	6
TAP	7	288	1
TAP	7	288	7
TAP	8	0	2
TAP	8	0	4
TAP	8	48	5
TAP	8	96	1
TAP	8	96	4
TAP	8	144	5
HLD	8	192	3	72
TAP	8	192	4
HLD	8	264	1	72
STR	8	336	0
SI_	8	336	0	96	48	4
TAP	9	48	7
TAP	9	96	7
TAP	9	144	6
TAP	9	192	3
TAP	9	192	5
XTP	9	288	1
XTP	9	288	6
HLD	10	0	2	72
TAP	10	72	3
TAP	10	96	2
TAP	10	144	1
HLD	10	192	1	72
TAP	10	264	3
TAP	10	288	1
TAP	10	336	2
HLD	11	0	2	72
TAP	11	72	3
TAP	11	96	2
TAP	11	144	2
TTP	11	192	3	E	0	M1
TTP	11	240	1	B	0	M1
TTP	11	288	4	E	0	M1
TTP	11	336	0	C	0	M1
HLD	12	0	5	72
TAP	12	72	4
TAP	12	96	5
TAP	12	144	6
HLD	12	192	6	72
TAP	12	264	4
TAP	12	288	6
TAP	12	336	5
HLD	13	0	5	72
TAP	13	72	4
TAP	13	96	5
TAP	13	144	6
TAP	13	192	4
TAP	13	192	5
BRK	13	288	0
XTP	14	0	7
XTP	14	48	7
XTP	14	96	0
XTP	14	96	6
TAP	14	192	3
TAP	14	192	4
TAP	14	240	2
TAP	14	264	3
TAP	14	288	2
TAP	14	336	5
TAP	14	360	4
TAP	15	0	5
TAP	15	48	2
TAP	15	72	3
TAP	15	96	1
TAP	15	144	5
TAP	15	168	4
TAP	15	192	6
TAP	15	240	1
TAP	15	288	1
TAP	15	288	7
HLD	16	0	6	72
TAP	16	72	4
TAP	16	96	4
TAP	16	144	5
HLD	16	192	1	72
TAP	16	264	3
TAP	16	288	3
TAP	16	336	2
TAP	17	0	3
STR	17	0	4
SCR	17	0	4	96	144	3
BRK	17	288	1
BRK	17	288	6
STR	18	0	2
SI_	18	0	2	96	48	6
TAP	18	48	2
STR	18	96	5
SI_	18	96	5	96	48	1
TAP	18	144	5
TAP	18	192	0
TAP	18	264	2
HLD	18	336	4	96
TAP	18	336	6
TAP	19	48	6
TAP	19	96	5
TAP	19	144	4
TAP	19	192	2
TAP	19	192	3
TAP	19	288	1
TAP	19	288	4
STR	20	0	2
SI_	20	0	2	96	48	6
TAP	20	48	2
STR	20	96	5
SI_	20	96	5	96	48	1
TAP	20	144	5
TAP	20	192	0
TAP	20	264	2
HLD	20	336	4	96
TAP	20	336	6
TAP	21	48	6
TAP	21	96	5
TAP	21	144	4
TAP	21	192	2
TAP	21	192	3
XTP	21	288	1
XTP	21	288	6
TAP	22	0	2
TAP	22	24	3
TAP	22	48	2
TAP	22	96	3
TAP	22	96	5
TAP	22	144	4
TAP	22	192	2
HLD	22	192	3	72
TAP	22	264	0
TAP	22	336	4
TAP	22	336	5
HLD	23	0	4	72
TAP	23	0	5
TAP	23	72	6
TAP	23	144	2
TAP	23	144	3
STR	23	192	1
SI_	23	192	1	96	48	3
TAP	23	192	4
TAP	23	240	1
TAP	23	240	4
TAP	24	0	5
TAP	24	24	4
TAP	24	48	5
TAP	24	96	2
TAP	24	96	4
TAP	24	144	3
HLD	24	192	4	72
TAP	24	192	5
TAP	24	264	7
TAP	24	336	2
TAP	24	336	3
TAP	25	0	2
HLD	25	0	3	72
TAP	25	72	1
TAP	25	144	2
TAP	25	144	4
TAP	25	192	3
TAP	25	192	5
TAP	25	240	5
BRK	25	288	0
XTP	26	0	7
XTP	26	48	7
XTP	26	96	0
XTP	26	96	6
TAP	26	192	3
TAP	26	216	4
TAP	26	240	2
TAP	26	264	3
TAP	26	288	1
TAP	26	336	1
TAP	27	0	4
TAP	27	24	3
TAP	27	48	5
TAP	27	72	4
TAP	27	96	6
TAP	27	144	6
TAP	27	192	0
TAP	27	216	7
TAP	27	240	0
BRK	27	288	1
BRK	27	288	6
STR	28	0	2
SI_	28	0	2	96	48	4
TAP	28	48	2
TAP	28	96	6
TAP	28	144	6
STR	28	192	5
SI_	28	192	5	96	48	3
TAP	28	240	5
TAP	28	288	1
TAP	28	336	1
STR	29	0	2
SCR	29	0	2	96	48	5
TAP	29	48	2
TAP	29	96	6
TAP	29	144	6
TAP	29	192	7
BRK	29	240	0
BRK	29	288	0
TAP	30	0	6
TAP	30	48	6
TAP	30	96	4
TAP	30	96	5
TAP	30	144	6
TAP	30	192	6
TTP	30	240	4	E	0	M1
TTP	30	264	3	E	0	M1
TTP	30	288	2	E	0	M1
TAP	31	0	1
TAP	31	48	1
TAP	31	96	2
TAP	31	120	3
TAP	31	144	1
TAP	31	192	1
BRK	31	240	0
BRK	31	240	7
BRK	31	288	0
BRK	31	288	7
TAP	32	0	1
TAP	32	48	1
TAP	32	96	2
TAP	32	120	3
TAP	32	144	1
TAP	32	192	1
TTP	32	240	4	E	0	M1
TTP	32	264	5	E	0	M1
TTP	32	288	6	E	0	M1
TAP	33	0	6
TAP	33	48	6
TAP	33	96	4
TAP	33	96	5
TAP	33	144	6
TAP	33	192	6
BRK	33	240	6
BRK	33	240	7
BRK	33	288	6
BRK	33	288	7
TAP	34	0	6
TAP	34	24	7
TAP	34	48	6
TAP	34	96	5
TAP	34	120	4
TAP	34	144	6
TAP	34	192	6
TTP	34	240	4	E	0	M1
TTP	34	264	3	E	0	M1
TTP	34	288	2	E	0	M1
STR	35	0	0
SI_	35	0	0	96	48	4
TAP	35	48	0
BRK	35	96	4
TAP	35	144	5
STR	35	192	6
SI_	35	192	6	96	48	1
TAP	35	240	6
STR	35	288	2
SCL	35	288	2	96	192	5
TAP	35	336	2
TTP	36	0	0	C	1	M1
TAP	36	288	4
TAP	36	336	2
TAP	37	0	1
TAP	37	0	5
TAP	37	48	2
TAP	37	48	4
TAP	37	96	1
TAP	37	96	5
TAP	37	144	2
TAP	37	144	4
TAP	37	192	1
TAP	37	192	5
BRK	37	288	0
BRK	37	288	7
XST	38	0	1
SI_	38	0	1	96	48	4
XST	38	96	5
SI_	38	96	5	96	48	0
TAP	38	192	3
TAP	38	240	3
TAP	38	288	7
TAP	38	336	6
TAP	39	0	3
TAP	39	0	5
TAP	39	48	2
TAP	39	48	6
TAP	39	96	3
TAP	39	96	5
TAP	39	144	2
TAP	39	144	6
TAP	39	192	3
TAP	39	192	5
BRK	39	288	0
BRK	39	288	7
XST	40	0	1
SI_	40	0	1	96	48	4
TAP	40	48	1
STR	40	96	6
SI_	40	96	6	96	48	2
TAP	40	144	6
STR	40	192	0
SCL	40	192	0	96	48	5
TAP	40	240	0
STR	40	288	3
SI_	40	288	3	96	48	7
TAP	40	336	3
TAP	41	0	1
TAP	41	48	1
TAP	41	96	0
TAP	41	96	6
TAP	41	144	5
TAP	41	168	4
TAP	41	216	2
TAP	41	240	3
TAP	41	288	1
TAP	41	288	4
TAP	41	336	1
STR	42	0	0
SI_	42	0	0	96	48	4
STR	42	0	5
SI_	42	0	5	96	48	0
TAP	42	96	0
TAP	42	96	5
STR	42	192	2
SI_	42	192	2	96	48	7
STR	42	192	7
SI_	42	192	7	96	48	3
TAP	42	288	2
TAP	42	288	7
TAP	43	0	0
TAP	43	48	1
TAP	43	48	7
TAP	43	96	2
TAP	43	96	6
TAP	43	144	3
TAP	43	144	5
BST	43	192	4
SI_	43	192	4	96	48	1
SI_	43	192	4	96	48	7
BRK	43	288	4
XST	44	0	0
SCL	44	0	0	96	48	5
TAP	44	48	0
STR	44	96	4
SI_	44	96	4	96	48	7
TAP	44	144	4
STR	44	192	0
SI_	44	192	0	96	48	4
TAP	44	240	0
STR	44	288	6
SI_	44	288	6	96	48	3
TAP	44	336	6
TAP	45	0	2
TAP	45	48	2
TAP	45	96	0
TAP	45	96	1
TAP	45	144	6
TAP	45	168	7
TAP	45	216	5
TAP	45	240	4
TAP	45	288	3
TAP	45	288	6
TAP	45	336	2
STR	46	0	1
SI_	46	0	1	96	48	4
TAP	46	0	4
TAP	46	96	1
BRK	46	96	7
TAP	46	192	3
STR	46	192	6
SI_	46	192	6	96	48	3
BRK	46	288	0
TAP	46	288	6
TAP	46	336	1
TAP	47	0	1
TAP	47	0	5
TAP	47	48	0
TAP	47	48	4
STR	47	96	1
SCR	47	96	1	96	48	4
STR	47	96	5
SCR	47	96	5	96	48	0
TAP	47	144	0
TAP	47	144	4
TAP	47	192	1
TAP	47	192	5
TTP	47	288	0	C	0	M1
TTP	47	288	1	B	0	M1
TTP	47	288	3	B	0	M1
TTP	47	288	5	B	0	M1
TTP	47	288	7	B	0	M1
XTP	48	0	2
XTP	48	0	6
TAP	48	96	2
TAP	48	96	6
TAP	48	144	5
TAP	48	192	2
TAP	48	192	5
TAP	48	288	2
TAP	48	288	4
TAP	48	336	3
TAP	49	0	2
STR	49	0	3
SI_	49	0	3	96	48	5
STR	49	96	1
SI_	49	96	1	96	48	3
TTP	49	192	7	B	0	M1
TTP	49	288	0	C	0	M1
XTP	50	0	1
XTP	50	0	5
TAP	50	96	1
TAP	50	96	5
TAP	50	144	2
TAP	50	192	2
TAP	50	192	5
TAP	50	288	3
TAP	50	288	5
XTP	50	336	4
XHO	50	336	6	240
XTP	51	192	0
XTP	51	216	7
XTP	51	240	1
XTP	51	264	6
XTP	51	288	2
XTP	51	312	5
XTP	51	336	3
XTP	51	360	4
STR	52	0	1
SLR	52	0	1	96	96	7
TAP	52	48	1
TAP	52	96	7
TAP	52	144	6
STR	52	192	5
SLR	52	192	5	96	96	3
TAP	52	240	5
TAP	52	288	3
TAP	52	336	2
TAP	53	0	1
TAP	53	48	0
TAP	53	96	6
TAP	53	96	7
TAP	53	144	5
TAP	53	168	5
TAP	53	216	2
TAP	53	240	3
TAP	53	288	1
TAP	53	288	4
TAP	54	0	5
TAP	54	48	4
TAP	54	48	6
TAP	54	96	2
TAP	54	144	1
TAP	54	144	3
TAP	54	192	6
TAP	54	216	7
TAP	54	240	6
TAP	54	288	1
TAP	54	312	0
TAP	54	336	1
HLD	55	0	2	72
TAP	55	0	7
HLD	55	72	3	72
TAP	55	144	4
TAP	55	192	4
TAP	55	192	5
TAP	55	288	0
TAP	55	288	7
TAP	56	0	1
TAP	56	24	3
TAP	56	48	2
TAP	56	72	4
TAP	56	96	3
TAP	56	120	5
HLD	56	144	4	48
TAP	56	192	6
TAP	56	216	4
TAP	56	240	5
TAP	56	264	3
TAP	56	288	4
TAP	56	312	2
TAP	56	336	3
XHO	57	0	1	72
TAP	57	72	0
TAP	57	96	1
TAP	57	144	2
TAP	57	144	7
STR	57	192	3
SI_	57	192	3	96	48	7
STR	57	192	6
SCL	57	192	6	96	48	3
TAP	58	0	0
TAP	58	48	0
TAP	58	96	0
TAP	58	96	7
TAP	58	144	7
TAP	58	192	5
TAP	58	192	7
TAP	58	240	5
TAP	58	288	3
TAP	58	288	5
TAP	58	336	3
THO	59	0	0	192	C	0	M1
TAP	59	0	3
STR	60	0	7
SCL	60	0	7	96	288	4
STR	61	0	0
SCR	61	0	0	96	288	3
HLD	62	0	4	240
TAP	62	240	3
TAP	62	264	4
TAP	62	288	2
TAP	62	288	5
TAP	63	0	0
TAP	63	0	7
TAP	63	48	1
TAP	63	48	6
TAP	63	96	0
TAP	63	96	7
TAP	63	144	1
TAP	63	144	6
TTP	63	192	1	B	0	M1
TTP	63	240	6	B	0	M1
TTP	63	288	3	E	0	M1
TTP	63	336	5	E	0	M1
STR	64	0	0
SI_	64	0	0	96	48	4
TAP	64	48	0
STR	64	96	6
SI_	64	96	6	96	48	2
TAP	64	144	6
BRK	64	192	1
BRK	64	240	3
BRK	64	288	4
BRK	64	336	6
STR	65	0	0
SCR	65	0	0	96	24	3
STR	65	0	7
SCL	65	0	7	96	24	4
TAP	65	48	2
TAP	65	48	5
BRK	65	96	0
BRK	65	96	7
TTP	65	168	0	C	1	M1
TTP	65	168	2	B	0	M1
TTP	65	168	3	B	0	M1
TTP	65	168	4	B	0	M1
TTP	65	168	5	B	0	M1
XTP	65	240	0
XTP	65	240	7
XTP	65	288	1
XTP	65	288	6
STR	66	0	3
SI_	66	0	3	96	48	0
SI_	66	0	3	96	48	6
BRK	66	96	3
STR	66	192	4
SI_	66	192	4	96	48	1
SI_	66	192	4	96	48	7
BRK	66	288	4
STR	67	0	3
SCL	67	0	3	96	48	0
SCR	67	0	3	96	48	6
TAP	67	0	4
BRK	67	96	3
TAP	67	192	3
STR	67	192	4
SCL	67	192	4	96	48	1
SCR	67	192	4	96	48	7
BRK	67	288	4
XST	68	0	6
SI_	68	0	6	96	48	3
TAP	68	48	6
STR	68	96	1
SI_	68	96	1	96	48	5
TAP	68	144	1
STR	68	192	7
SCR	68	192	7	96	48	2
TAP	68	240	7
STR	68	288	4
SI_	68	288	4	96	48	0
TAP	68	336	4
TAP	69	0	6
TAP	69	48	6
TAP	69	96	1
TAP	69	96	7
TAP	69	144	2
TAP	69	168	3
TAP	69	216	5
TAP	69	240	4
TAP	69	288	2
TAP	69	288	6
TAP	69	336	1
STR	70	0	1
SI_	70	0	1	96	48	5
STR	70	0	3
SI_	70	0	3	96	48	7
TAP	70	96	1
TAP	70	96	3
STR	70	192	4
SI_	70	192	4	96	48	0
STR	70	192	6
SI_	70	192	6	96	48	2
TAP	70	288	4
TAP	70	288	6
TAP	71	0	7
TAP	71	48	0
TAP	71	48	6
TAP	71	96	1
TAP	71	96	5
TAP	71	144	2
TAP	71	144	4
BST	71	192	3
SF_	71	192	3	96	48	7
BRK	71	288	3
XST	72	0	7
SCR	72	0	7	96	48	2
TAP	72	48	7
STR	72	96	3
SI_	72	96	3	96	48	7
TAP	72	144	3
STR	72	192	6
SI_	72	192	6	96	48	2
TAP	72	240	6
STR	72	288	1
SI_	72	288	1	96	48	4
TAP	72	336	1
TAP	73	0	5
TAP	73	48	5
TAP	73	96	6
TAP	73	96	7
TAP	73	144	1
TAP	73	168	0
TAP	73	216	2
TAP	73	240	3
TAP	73	288	4
TAP	73	288	6
TAP	73	336	6
XTP	74	0	3
XST	74	0	7
SI_	74	0	7	96	48	3
BRK	74	96	1
TAP	74	96	7
XST	74	192	0
SI_	74	192	0	96	48	4
XTP	74	192	4
TAP	74	288	0
BRK	74	288	7
TAP	74	336	6
TAP	75	0	1
TAP	75	0	5
TAP	75	48	0
TAP	75	48	4
STR	75	96	1
SCR	75	96	1	96	48	4
STR	75	96	5
SCR	75	96	5	96	48	0
TAP	75	144	0
TAP	75	144	4
TAP	75	192	1
TAP	75	192	5
XTP	75	288	3
XTP	75	288	7
TAP	75	336	6
TAP	76	0	1
TAP	76	0	5
TAP	76	48	0
TAP	76	48	4
STR	76	96	1
SCR	76	96	1	96	48	4
STR	76	96	5
SCR	76	96	5	96	48	0
TAP	76	144	0
TAP	76	144	4
TAP	76	192	1
TAP	76	192	5
XTP	76	288	0
XTP	76	288	4
TAP	76	336	7
TAP	77	0	2
TAP	77	0	6
TAP	77	48	1
TAP	77	48	5
STR	77	96	2
SCR	77	96	2	96	48	5
STR	77	96	6
SCR	77	96	6	96	48	1
TAP	77	144	1
TAP	77	144	5
TAP	77	192	2
TAP	77	192	6
TTP	77	288	0	C	0	M1
TTP	77	288	1	B	0	M1
TTP	77	288	3	B	0	M1
TTP	77	288	5	B	0	M1
TTP	77	288	7	B	0	M1
XST	78	0	2
SI_	78	0	2	96	48	6
TAP	78	48	2
STR	78	96	5
SI_	78	96	5	96	48	1
TAP	78	144	5
TAP	78	192	0
TAP	78	264	2
HLD	78	336	4	96
TAP	78	336	6
TAP	79	48	6
TAP	79	96	5
TAP	79	144	4
TAP	79	192	2
TAP	79	192	3
TAP	79	288	1
TAP	79	288	6
STR	80	0	2
SI_	80	0	2	96	48	6
TAP	80	48	2
STR	80	96	5
SI_	80	96	5	96	48	1
TAP	80	144	5
TAP	80	192	0
TAP	80	264	2
HLD	80	336	4	96
TAP	80	336	6
TAP	81	48	6
TAP	81	96	5
TAP	81	144	4
TAP	81	192	1
TAP	81	192	3
TAP	81	288	0
TAP	81	288	7
BST	82	0	2
SI_	82	0	2	96	48	6
TAP	82	48	2
STR	82	96	5
SI_	82	96	5	96	48	1
TAP	82	144	5
TAP	82	192	0
TAP	82	264	2
TAP	82	336	4
HLD	82	336	6	96
TAP	83	48	7
TAP	83	96	0
TAP	83	96	5
TAP	83	144	1
TAP	83	192	2
TAP	83	192	7
TAP	83	288	4
TAP	83	288	6
STR	84	0	2
SI_	84	0	2	96	48	6
TAP	84	48	2
STR	84	96	5
SI_	84	96	5	96	48	1
TAP	84	144	5
TAP	84	192	0
TAP	84	264	2
TAP	84	336	4
HLD	84	336	6	96
TAP	85	48	7
TAP	85	96	0
TAP	85	96	5
TAP	85	144	1
TAP	85	192	2
STR	85	192	3
SI_	85	192	3	96	48	7
STR	85	288	0
SCR	85	288	0	96	288	7
XTP	86	0	7
HLD	87	0	1	72
TAP	87	0	5
TAP	87	72	3
TAP	87	96	2
TAP	87	144	3
TAP	87	144	4
TAP	87	192	5
TAP	87	216	4
TAP	87	240	6
TAP	87	288	3
TAP	87	288	7
BRK	87	336	1
BRK	87	336	5

T_REC_TAP	516
T_REC_BRK	41
T_REC_XTP	38
T_REC_HLD	31
T_REC_XHO	2
T_REC_STR	70
T_REC_BST	3
T_REC_XST	9
T_REC_TTP	35
T_REC_THO	1
T_REC_SLD	87
T_REC_ALL	833
T_NUM_TAP	668
T_NUM_BRK	44
T_NUM_HLD	34
T_NUM_SLD	87
T_NUM_ALL	833
T_JUDGE_TAP	712
T_JUDGE_HLD	75
T_JUDGE_SLD	87
T_JUDGE_ALL	874
TTM_EACHPAIRS	169
TTM_SCR_TAP	334000
TTM_SCR_BRK	114400
TTM_SCR_HLD	34000
TTM_SCR_SLD	130500
TTM_SCR_ALL	612900
TTM_SCR_S	590250
TTM_SCR_SS	608500
TTM_RAT_ACV	10072

