VERSION	0.00.00	1.03.00
FES_MODE	0
BPM_DEF	152.000	152.000	152.000	152.000
MET_DEF	4	4
RESOLUTION	384
CLK_DEF	384
COMPATIBLE_CODE	MA2

BPM	0	0	152.000
MET	0	0	4	4

XTP	1	288	3
XTP	1	288	4
TAP	2	0	0
TAP	2	96	0
HLD	2	192	1	96
HLD	2	192	7	96
STR	3	0	1
SI_	3	0	1	96	96	5
STR	3	0	7
SI_	3	0	7	96	96	3
TAP	3	288	3
TAP	3	288	4
TAP	4	0	7
TAP	4	96	7
HLD	4	192	0	96
HLD	4	192	6	96
STR	5	0	0
SI_	5	0	0	96	96	4
STR	5	0	6
SI_	5	0	6	96	96	2
TAP	5	288	3
TAP	5	288	4
TAP	6	0	2
TAP	6	96	2
HLD	6	192	1	96
HLD	6	192	3	96
STR	7	0	1
SI_	7	0	1	96	96	5
STR	7	0	3
SI_	7	0	3	96	96	7
TAP	7	288	6
TAP	7	288	7
TAP	8	0	5
TAP	8	96	5
HLD	8	192	4	96
HLD	8	192	6	96
STR	9	0	4
SI_	9	0	4	96	96	0
STR	9	0	6
SI_	9	0	6	96	96	2
BRK	9	288	0
BRK	9	288	1
TAP	10	0	2
TAP	10	48	2
TAP	10	96	2
HLD	10	192	1	96
HLD	10	192	3	96
TAP	11	0	2
HLD	11	0	3	96
HLD	11	96	4	96
HLD	11	192	5	96
TAP	11	288	4
TAP	12	0	5
TAP	12	48	5
TAP	12	96	5
HLD	12	192	4	96
HLD	12	192	6	96
HLD	13	0	4	96
TAP	13	0	5
HLD	13	96	3	96
HLD	13	192	2	96
XTP	13	288	3
TTP	14	0	5	B	0	M1
TTP	14	48	6	B	0	M1
TTP	14	96	7	E	0	M1
TTP	14	192	2	B	0	M1
TTP	14	240	1	B	0	M1
TTP	14	288	1	E	0	M1
TTP	15	0	5	E	0	M1
TTP	15	48	6	E	0	M1
TTP	15	96	7	E	0	M1
TTP	15	192	3	E	0	M1
TTP	15	240	2	E	0	M1
TTP	15	288	1	E	0	M1
TAP	16	0	7
TAP	16	48	7
TAP	16	96	7
HLD	16	192	0	96
HLD	16	192	6	96
TAP	17	0	4
TAP	17	0	5
TAP	17	96	2
TAP	17	96	3
TAP	17	192	0
TAP	17	192	7
BRK	17	288	1
BRK	17	288	6
TAP	18	0	4
TAP	18	0	6
TAP	18	96	1
TAP	18	96	3
HLD	18	192	4	96
HLD	18	192	6	96
TAP	19	0	2
TAP	19	0	4
TAP	19	96	3
TAP	19	96	5
HLD	19	192	2	96
TAP	19	192	4
TAP	19	288	1
TAP	20	0	1
TAP	20	0	3
TAP	20	96	4
TAP	20	96	6
HLD	20	192	1	96
HLD	20	192	3	96
TAP	21	0	3
TAP	21	0	5
TAP	21	96	2
TAP	21	96	4
TAP	21	192	3
HLD	21	192	5	96
TAP	21	288	6
TAP	22	0	5
TAP	22	48	5
TAP	22	96	4
TAP	22	96	5
HLD	22	192	3	96
HLD	22	192	6	96
TAP	23	0	3
TAP	23	0	6
TAP	23	96	2
TAP	23	96	5
HLD	23	192	1	96
HLD	23	192	4	96
TAP	24	0	2
TAP	24	48	2
TAP	24	96	2
TAP	24	96	3
HLD	24	192	1	96
HLD	24	192	4	96
TAP	25	0	1
TAP	25	0	6
TAP	25	96	2
TAP	25	96	5
HLD	25	192	3	96
HLD	25	192	4	96
TTP	26	0	1	E	0	M1
TTP	26	48	0	C	0	M1
TTP	26	96	5	E	0	M1
TTP	26	192	7	E	0	M1
TTP	26	240	0	C	0	M1
TTP	26	288	3	E	0	M1
TTP	27	0	1	E	0	M1
TTP	27	48	0	B	0	M1
TTP	27	96	7	B	0	M1
TTP	27	192	5	E	0	M1
TTP	27	240	4	B	0	M1
TTP	27	288	3	B	0	M1
TAP	28	0	1
TAP	28	48	1
TAP	28	96	0
TAP	28	96	1
HLD	28	192	2	96
HLD	28	192	7	96
STR	29	0	1
SLR	29	0	1	96	144	7
STR	29	0	6
SLL	29	0	6	96	144	0
TAP	30	0	0
TAP	30	48	0
TAP	30	96	7
TAP	30	144	1
HLD	30	192	1	96
TAP	30	288	3
TAP	31	0	4
TAP	31	48	4
TAP	31	96	3
TAP	31	144	5
HLD	31	192	5	96
TAP	31	288	7
TAP	32	0	6
TAP	32	0	7
TAP	32	48	6
TAP	32	48	7
TAP	32	96	0
TAP	32	96	5
TAP	32	144	0
TAP	32	144	5
TAP	32	192	1
HLD	32	192	4	96
TAP	32	288	3
TAP	33	0	0
TAP	33	0	1
TAP	33	96	6
TAP	33	96	7
HLD	33	192	4	96
HLD	33	192	5	96
TAP	34	0	7
TAP	34	48	7
TAP	34	96	0
TAP	34	144	6
HLD	34	192	6	96
TAP	34	288	4
TAP	35	0	4
TAP	35	48	4
TAP	35	96	3
TAP	35	96	5
TAP	35	192	2
TAP	35	192	4
STR	35	288	4
SUR	35	288	4	96	192	3
STR	35	288	5
SCR	35	288	5	96	192	2
XTP	37	0	2
XTP	37	0	4
XTP	37	48	2
XTP	37	48	4
XTP	37	96	3
XTP	37	96	5
XTP	37	144	3
XTP	37	144	5
XHO	37	192	2	96
XHO	37	192	4	96
THO	38	0	0	192	C	0	M1
TTP	38	0	1	B	0	M1
TTP	38	0	3	B	0	M1
TTP	38	0	5	B	0	M1
TTP	38	0	7	B	0	M1
TAP	39	0	0
TAP	39	0	7
TAP	39	48	0
TAP	39	48	7
TAP	39	96	1
TAP	39	96	6
TAP	39	144	1
TAP	39	144	6
TAP	39	192	0
TAP	39	192	7
BRK	39	288	1
BRK	39	288	6
TAP	40	0	0
TAP	40	0	7
TAP	40	96	2
TAP	40	96	3
TAP	40	192	0
TAP	40	192	7
TAP	40	288	4
TAP	40	288	5
TAP	41	0	0
TAP	41	0	7
STR	41	96	2
SUR	41	96	2	96	96	7
STR	41	96	3
SCR	41	96	3	96	96	6
TAP	42	0	4
HLD	42	0	5	96
TAP	42	96	0
HLD	42	192	2	96
TAP	42	192	3
TAP	42	288	7
TAP	43	0	4
TAP	43	48	3
STR	43	96	4
SF_	43	96	4	96	96	0
TAP	44	0	0
TAP	44	0	7
TAP	44	96	4
TAP	44	96	5
TAP	44	192	0
TAP	44	192	7
TAP	44	288	2
TAP	44	288	3
TAP	45	0	0
TAP	45	0	7
STR	45	96	4
SCL	45	96	4	96	96	1
STR	45	96	5
SUL	45	96	5	96	96	0
TAP	46	0	2
TAP	46	0	3
TTP	46	96	6	B	0	M1
TTP	46	96	7	B	0	M1
TAP	46	192	4
TAP	46	192	5
TTP	46	288	0	B	0	M1
TTP	46	288	1	B	0	M1
XTP	47	0	2
XTP	47	0	4
XTP	47	48	2
XTP	47	48	4
XTP	47	96	3
XTP	47	96	5
XTP	47	144	3
XTP	47	144	5
XTP	47	192	2
XTP	47	192	4
TTP	47	288	1	B	0	M1
TTP	47	288	1	E	0	M1
TTP	47	288	6	B	0	M1
TTP	47	288	7	E	0	M1
TAP	48	0	4
TAP	48	0	5
TAP	48	96	2
TAP	48	96	3
HLD	48	192	4	96
HLD	48	192	5	96
TAP	49	0	4
TAP	49	0	5
TAP	49	96	3
TAP	49	96	4
HLD	49	192	2	96
TAP	49	192	3
TAP	49	288	1
TAP	50	0	2
TAP	50	0	3
TAP	50	96	4
TAP	50	96	5
HLD	50	192	2	96
HLD	50	192	3	96
TAP	51	0	2
TAP	51	0	3
TAP	51	96	3
TAP	51	96	4
TAP	51	192	4
HLD	51	192	5	96
BRK	51	288	6
TAP	52	0	6
TAP	52	0	7
TAP	52	96	6
TAP	52	96	7
TAP	52	192	5
TAP	52	240	4
TAP	52	288	5
TAP	53	0	2
TAP	53	0	3
STR	53	96	2
SCL	53	96	2	96	96	7
STR	53	96	3
SCR	53	96	3	96	96	6
HLD	54	0	4	72
HLD	54	0	5	72
TAP	54	144	5
TAP	54	192	4
TAP	54	288	3
TAP	54	288	6
TAP	55	0	2
TAP	55	48	2
TAP	55	96	4
TAP	55	144	4
TAP	55	192	3
TAP	55	288	2
TAP	55	288	5
TAP	56	0	2
TAP	56	0	3
TAP	56	96	4
TAP	56	96	5
TAP	56	192	0
TAP	56	192	1
TAP	56	288	6
TAP	56	288	7
TAP	57	0	1
TAP	57	0	7
TAP	57	96	2
TAP	57	96	6
HLD	57	192	3	96
HLD	57	192	5	96
HLD	58	0	2	72
HLD	58	0	3	72
TAP	58	144	2
TAP	58	192	3
TAP	58	288	1
TAP	58	288	4
TAP	59	0	7
TAP	59	48	7
TAP	59	96	0
TAP	59	144	0
TAP	59	192	0
TAP	59	192	7
TAP	59	288	1
TAP	59	288	6
HLD	60	0	2	672
HLD	60	0	5	672
HLD	62	0	1	96
HLD	62	0	4	96
HLD	62	192	3	96
HLD	62	192	6	96
XTP	63	0	0
XTP	63	0	7
XTP	63	48	1
XTP	63	48	6
XTP	63	96	2
XTP	63	96	5
XTP	63	144	3
XTP	63	144	4
XTP	63	192	3
HLD	63	192	4	96
BRK	63	288	0
TAP	64	0	0
TAP	64	0	7
TAP	64	48	6
TAP	64	96	4
TAP	64	96	5
TAP	64	192	0
TAP	64	192	7
TAP	64	240	1
TAP	64	288	2
TAP	64	288	3
XTP	65	0	0
XTP	65	0	1
XTP	65	96	2
XTP	65	96	7
XHO	65	192	3	96
XHO	65	192	6	96
TAP	66	0	4
TAP	66	0	5
TTP	66	96	0	B	0	M1
TTP	66	96	1	B	0	M1
TAP	66	192	2
TAP	66	192	3
TTP	66	288	6	B	0	M1
TTP	66	288	7	B	0	M1
XTP	67	0	0
XTP	67	0	1
TTP	67	96	4	B	0	M1
TTP	67	96	5	B	0	M1
XTP	67	192	6
XTP	67	192	7
TTP	67	288	2	B	0	M1
TTP	67	288	3	B	0	M1
TAP	68	0	0
TAP	68	0	7
TAP	68	48	1
TAP	68	96	2
TAP	68	96	3
TAP	68	192	0
TAP	68	192	7
TAP	68	240	6
TAP	68	288	4
TAP	68	288	5
TAP	69	0	0
TAP	69	0	7
TAP	69	48	1
STR	69	96	2
SUR	69	96	2	96	96	7
STR	69	96	3
SCR	69	96	3	96	96	6
TAP	70	0	4
HLD	70	0	6	96
TAP	70	96	0
HLD	70	192	1	96
TAP	70	192	3
TAP	70	288	7
TAP	71	0	4
TAP	71	48	3
STR	71	96	4
SF_	71	96	4	96	96	0
TAP	72	0	0
TAP	72	0	7
TAP	72	48	6
TAP	72	96	4
TAP	72	96	5
TAP	72	192	0
TAP	72	192	7
TAP	72	240	1
TAP	72	288	2
TAP	72	288	3
TAP	73	0	0
TAP	73	0	7
TAP	73	48	6
STR	73	96	4
SCL	73	96	4	96	96	1
STR	73	96	5
SUL	73	96	5	96	96	0
HLD	74	0	2	96
TAP	74	0	3
TTP	74	96	6	B	0	M1
TTP	74	96	7	B	0	M1
TTP	74	96	7	E	0	M1
TAP	74	192	4
HLD	74	192	5	96
TTP	74	288	0	B	0	M1
TTP	74	288	1	B	0	M1
TTP	74	288	1	E	0	M1
TAP	75	0	2
TAP	75	0	4
TAP	75	48	2
TAP	75	48	4
TAP	75	96	3
TAP	75	96	5
TAP	75	144	3
TAP	75	144	5
TAP	75	192	2
TAP	75	192	4
TTP	75	288	0	C	0	M1
TAP	76	0	3
TAP	76	0	6
TAP	76	48	3
TAP	76	48	6
TAP	76	96	1
TAP	76	96	4
TAP	76	144	1
TAP	76	144	4
TAP	76	192	3
TAP	76	192	6
TTP	76	288	0	C	0	M1
XTP	77	0	0
XTP	77	0	5
XTP	77	48	0
XTP	77	48	5
XTP	77	96	2
XTP	77	96	7
XTP	77	144	2
XTP	77	144	7
XTP	77	192	0
XTP	77	192	5
TTP	77	288	0	C	1	M1
TAP	78	0	6
TAP	78	0	7
TAP	78	96	0
TAP	78	96	1
HLD	78	192	6	96
HLD	78	192	7	96
STR	79	0	0
SI_	79	0	0	96	96	4
STR	79	0	6
SI_	79	0	6	96	96	2
TAP	79	288	3
TAP	79	288	5
TAP	80	0	0
TAP	80	0	1
TAP	80	96	6
TAP	80	96	7
HLD	80	192	0	96
HLD	80	192	1	96
STR	81	0	1
SI_	81	0	1	96	96	5
STR	81	0	7
SI_	81	0	7	96	96	3
TAP	81	288	2
TAP	81	288	4
TAP	82	0	5
TAP	82	0	7
TAP	82	96	0
TAP	82	96	2
HLD	82	192	5	96
HLD	82	192	7	96
STR	83	0	5
SI_	83	0	5	96	96	1
STR	83	0	7
SI_	83	0	7	96	96	3
TAP	83	288	2
TAP	83	288	3
TAP	84	0	0
TAP	84	0	2
TAP	84	96	5
TAP	84	96	7
HLD	84	192	0	96
HLD	84	192	2	96
STR	85	0	0
SI_	85	0	0	96	96	4
STR	85	0	2
SI_	85	0	2	96	96	6
TAP	85	288	4
TAP	85	288	5
STR	86	0	4
SXR	86	0	4	96	480	1
STR	86	0	5
SXL	86	0	5	96	480	0
XTP	87	336	2
XTP	87	336	6

T_REC_TAP	302
T_REC_BRK	8
T_REC_XTP	50
T_REC_HLD	75
T_REC_XHO	4
T_REC_STR	34
T_REC_BST	0
T_REC_XST	0
T_REC_TTP	53
T_REC_THO	1
T_REC_SLD	34
T_REC_ALL	561
T_NUM_TAP	439
T_NUM_BRK	8
T_NUM_HLD	80
T_NUM_SLD	34
T_NUM_ALL	561
T_JUDGE_TAP	447
T_JUDGE_HLD	186
T_JUDGE_SLD	34
T_JUDGE_ALL	667
TTM_EACHPAIRS	192
TTM_SCR_TAP	219500
TTM_SCR_BRK	20800
TTM_SCR_HLD	80000
TTM_SCR_SLD	51000
TTM_SCR_ALL	371300
TTM_SCR_S	359400
TTM_SCR_SS	370500
TTM_RAT_ACV	10021

