VERSION	0.00.00	1.03.00
FES_MODE	0
BPM_DEF	152.000	152.000	152.000	152.000
MET_DEF	4	4
RESOLUTION	384
CLK_DEF	384
COMPATIBLE_CODE	MA2

BPM	0	0	152.000
MET	0	0	4	4

XTP	1	288	3
XTP	1	288	4
XTP	2	0	2
TAP	2	96	2
TAP	2	192	2
TAP	2	192	3
TAP	3	0	5
TAP	3	96	5
TAP	3	192	4
TAP	3	192	5
TAP	4	0	2
TAP	4	96	2
TAP	4	192	2
TAP	4	192	3
TAP	5	0	4
TAP	5	96	4
TAP	5	192	3
TAP	5	192	5
TAP	6	0	6
TAP	6	96	6
TAP	6	192	6
TAP	6	192	7
TAP	7	0	1
TAP	7	96	1
TAP	7	192	0
TAP	7	192	1
TAP	8	0	6
TAP	8	96	6
TAP	8	192	6
TAP	8	192	7
TAP	9	0	0
TAP	9	96	7
XTP	9	192	1
XTP	9	192	6
HLD	10	0	2	192
TAP	10	192	3
HLD	11	0	5	192
TAP	11	192	4
HLD	12	0	2	192
TAP	12	192	3
HLD	13	0	4	96
HLD	13	0	5	96
TAP	13	192	4
TAP	13	192	5
STR	14	0	3
SI_	14	0	3	96	144	0
STR	15	0	7
SI_	15	0	7	96	144	4
TAP	16	0	2
TAP	16	96	2
TAP	16	192	3
TAP	17	0	3
TAP	17	0	4
TAP	17	96	3
TAP	17	96	4
TAP	17	192	2
TAP	17	192	5
TAP	18	0	5
TAP	18	96	5
TAP	18	192	4
TAP	18	192	5
TAP	19	0	2
TAP	19	96	2
TAP	19	192	2
TAP	19	192	3
TAP	20	0	5
TAP	20	96	5
TAP	20	192	4
TAP	20	192	5
TAP	21	0	3
TAP	21	96	3
TAP	21	192	2
TAP	21	192	4
HLD	22	0	1	192
TAP	22	192	0
HLD	23	0	6	192
TAP	23	192	7
HLD	24	0	1	192
TAP	24	192	0
TAP	25	0	7
TAP	25	96	0
TAP	25	192	1
TAP	25	192	6
STR	26	0	1
SCR	26	0	1	96	144	4
STR	27	0	5
SCR	27	0	5	96	144	0
TAP	28	0	1
TAP	28	96	1
TAP	28	192	0
TAP	29	0	0
TAP	29	0	7
TAP	29	96	0
TAP	29	96	7
XTP	29	192	1
XTP	29	192	6
TTP	30	0	0	B	0	L1
TTP	30	0	1	B	0	L1
TTP	31	0	2	B	0	L1
TTP	31	0	3	B	0	L1
TTP	32	0	4	B	0	L1
TTP	32	0	5	B	0	L1
TTP	33	0	6	B	0	L1
TTP	33	0	7	B	0	L1
TTP	34	0	3	B	0	L1
TTP	34	0	4	B	0	L1
TTP	35	0	2	B	0	L1
TTP	35	0	5	B	0	L1
TAP	36	0	6
TAP	36	192	6
TAP	36	192	7
TAP	37	0	1
TAP	37	96	1
TAP	37	192	0
TAP	37	192	1
TAP	38	0	6
TAP	38	96	6
TAP	38	192	7
TAP	38	288	7
XTP	39	0	0
XTP	39	0	7
XTP	39	96	0
XTP	39	96	7
XTP	39	192	1
XTP	39	192	6
BRK	40	0	1
TAP	40	96	0
TAP	40	96	1
TAP	40	192	6
TAP	40	288	6
TAP	40	288	7
TAP	41	0	5
TAP	41	96	5
TAP	41	192	4
TAP	41	192	6
TAP	42	0	6
TAP	42	96	6
TAP	42	96	7
TAP	42	192	1
TAP	42	288	0
TAP	42	288	1
TAP	43	0	2
TAP	43	96	3
TAP	43	192	2
TAP	43	192	4
TAP	44	0	5
TAP	44	96	4
TAP	44	96	5
TAP	44	192	2
TAP	44	288	2
TAP	44	288	3
TAP	45	0	1
TAP	45	96	0
TAP	45	192	1
TAP	45	192	6
HLD	46	0	2	96
HLD	46	0	5	96
HLD	46	192	1	96
HLD	46	192	6	96
TAP	47	0	0
TAP	47	0	7
TAP	47	96	0
TAP	47	96	7
XTP	47	192	1
XTP	47	192	6
TAP	48	0	2
TAP	48	96	2
TAP	48	192	2
TAP	48	192	3
TAP	49	0	5
TAP	49	96	5
TAP	49	192	4
TAP	49	192	5
TAP	50	0	2
TAP	50	96	2
TAP	50	192	2
TAP	50	192	3
TAP	51	0	4
TAP	51	96	4
TAP	51	192	2
TAP	51	192	5
XTP	52	0	6
TAP	52	96	6
TAP	52	192	7
TAP	52	288	7
TAP	53	0	0
TAP	53	96	0
TAP	53	192	1
TAP	53	192	7
TAP	54	0	2
TAP	54	96	2
TAP	54	192	3
TAP	54	288	3
TAP	55	0	4
TAP	55	96	4
TAP	55	192	3
TAP	55	192	5
TAP	56	0	6
TAP	56	96	6
TAP	56	192	7
TAP	56	288	7
TAP	57	0	0
TAP	57	96	0
TAP	57	192	1
TAP	57	192	7
TAP	58	0	2
TAP	58	96	2
TAP	58	192	3
TAP	58	288	3
XTP	59	0	3
XTP	59	0	4
XTP	59	96	3
XTP	59	96	4
BRK	59	192	2
BRK	59	192	5
XHO	60	0	2	384
HLD	61	0	3	384
XTP	62	0	4
XTP	62	192	5
TAP	63	0	1
TAP	63	0	6
TAP	63	96	1
TAP	63	96	6
BRK	63	192	0
BRK	63	192	7
TAP	64	0	1
TAP	64	96	0
TAP	64	96	1
TAP	64	192	6
TAP	64	288	6
TAP	64	288	7
XTP	65	0	0
XTP	65	96	1
XTP	65	96	6
XTP	65	192	2
XTP	65	192	5
XHO	66	0	3	96
XHO	66	0	4	96
XHO	66	192	2	96
XHO	66	192	5	96
XHO	67	0	1	96
XHO	67	0	6	96
XTP	67	192	0
XTP	67	192	7
TAP	68	0	6
TAP	68	96	6
TAP	68	96	7
TAP	68	192	1
TAP	68	288	0
TAP	68	288	1
TAP	69	0	2
TAP	69	96	3
TAP	69	192	2
TAP	69	192	4
TAP	70	0	5
TAP	70	96	4
TAP	70	96	5
TAP	70	192	2
TAP	70	288	2
TAP	70	288	3
TAP	71	0	1
TAP	71	96	0
TAP	71	192	1
TAP	71	192	7
TAP	72	0	6
TAP	72	96	6
TAP	72	96	7
TAP	72	192	1
TAP	72	288	0
TAP	72	288	1
TAP	73	0	2
TAP	73	96	3
TAP	73	192	2
TAP	73	192	5
XHO	74	0	1	96
XHO	74	0	6	96
XHO	74	192	2	96
XHO	74	192	5	96
TAP	75	0	3
TAP	75	0	4
TAP	75	96	3
TAP	75	96	4
TAP	75	192	3
TAP	75	192	4
TAP	76	0	2
TAP	76	0	5
TAP	76	96	2
TAP	76	96	5
TAP	76	192	2
TAP	76	192	5
TAP	77	0	1
TAP	77	0	6
TAP	77	96	1
TAP	77	96	6
BRK	77	192	1
BRK	77	192	6
TAP	78	0	2
TAP	78	96	2
TAP	78	192	2
TAP	78	192	3
TAP	79	0	5
TAP	79	96	5
TAP	79	192	4
TAP	79	192	5
TAP	80	0	2
TAP	80	96	2
TAP	80	192	2
TAP	80	192	3
TAP	81	0	4
TAP	81	96	4
TAP	81	192	3
TAP	81	192	5
TAP	82	0	6
TAP	82	96	6
TAP	82	192	6
TAP	82	192	7
TAP	83	0	1
TAP	83	96	1
TAP	83	192	0
TAP	83	192	1
TAP	84	0	6
TAP	84	96	6
TAP	84	192	6
TAP	84	192	7
TAP	85	0	0
TAP	85	96	7
XTP	85	192	1
XTP	85	192	6
XST	85	288	0
SXL	85	288	0	96	384	3
XST	85	288	7
SXR	85	288	7	96	384	4
XTP	87	288	3
XTP	87	288	4
XTP	87	336	3
XTP	87	336	4

T_REC_TAP	246
T_REC_BRK	7
T_REC_XTP	35
T_REC_HLD	13
T_REC_XHO	11
T_REC_STR	4
T_REC_BST	0
T_REC_XST	2
T_REC_TTP	12
T_REC_THO	0
T_REC_SLD	6
T_REC_ALL	336
T_NUM_TAP	299
T_NUM_BRK	7
T_NUM_HLD	24
T_NUM_SLD	6
T_NUM_ALL	336
T_JUDGE_TAP	306
T_JUDGE_HLD	72
T_JUDGE_SLD	6
T_JUDGE_ALL	384
TTM_EACHPAIRS	93
TTM_SCR_TAP	149500
TTM_SCR_BRK	18200
TTM_SCR_HLD	24000
TTM_SCR_SLD	9000
TTM_SCR_ALL	200700
TTM_SCR_S	194000
TTM_SCR_SS	200000
TTM_RAT_ACV	10035

