VERSION	0.00.00	1.03.00
FES_MODE	0
BPM_DEF	152.000	152.000	152.000	152.000
MET_DEF	4	4
RESOLUTION	384
CLK_DEF	384
COMPATIBLE_CODE	MA2

BPM	0	0	152.000
MET	0	0	4	4

XTP	2	0	0
TAP	3	0	0
TAP	4	0	7
TAP	5	0	7
TAP	6	0	0
TAP	7	0	0
TAP	7	0	7
TAP	8	0	7
TAP	9	0	0
TAP	9	0	7
TAP	10	0	0
TAP	10	192	0
TAP	11	0	0
TAP	12	0	1
TAP	12	192	1
TAP	13	0	1
HLD	14	0	2	384
TAP	16	0	3
TAP	16	192	3
XTP	17	0	3
XTP	17	0	4
HLD	18	0	4	192
TAP	19	0	4
TAP	19	192	4
HLD	20	0	3	192
TAP	21	0	3
BRK	21	192	3
TAP	22	0	4
TAP	22	192	4
TAP	23	0	4
TAP	24	0	5
TAP	24	192	5
TAP	25	0	5
HLD	26	0	6	384
TAP	28	0	7
TAP	28	192	7
XTP	29	0	0
XTP	29	0	7
TTP	30	0	0	B	0	L1
TTP	31	0	7	B	0	L1
TTP	32	0	1	B	0	L1
TTP	33	0	6	B	0	L1
TTP	34	0	2	B	0	L1
TTP	35	0	5	B	0	L1
TTP	36	0	3	B	0	L1
TTP	36	0	4	B	0	L1
THO	37	0	0	384	C	1	L1
TAP	40	0	7
TAP	40	192	7
TAP	41	0	6
TAP	41	96	6
TAP	41	192	6
TAP	42	0	5
TAP	42	192	5
TAP	43	0	4
TAP	43	96	4
XTP	43	192	3
XTP	43	192	4
TAP	44	0	2
TAP	44	192	2
TAP	45	0	1
TAP	45	96	1
TAP	45	192	1
XTP	46	0	0
XTP	46	0	7
XTP	46	192	0
XTP	46	192	7
TAP	47	0	7
TAP	47	96	7
BRK	47	192	0
BRK	47	192	7
STR	48	0	0
SI_	48	0	0	96	288	3
STR	50	0	7
SI_	50	0	7	96	288	4
TAP	52	0	0
TAP	52	192	0
HLD	53	0	0	192
TAP	54	0	1
TAP	54	192	1
HLD	55	0	1	192
TAP	56	0	2
TAP	56	192	2
HLD	57	0	2	192
TAP	58	0	3
TAP	58	192	3
HLD	59	0	3	192
HLD	60	0	4	384
TAP	62	0	3
TAP	63	0	3
TAP	63	96	3
BRK	63	192	3
BRK	63	192	4
TAP	64	0	5
TAP	64	96	5
TAP	64	192	5
TAP	65	0	6
TAP	65	96	6
TAP	65	192	6
XTP	66	0	0
XTP	66	0	7
XTP	66	192	0
XTP	66	192	7
XTP	67	0	1
XTP	67	0	6
BRK	67	192	1
BRK	67	192	6
TAP	68	0	0
TAP	68	96	0
TAP	68	192	0
TAP	69	0	1
TAP	69	96	1
TAP	69	192	0
TAP	69	192	1
TAP	70	0	2
TAP	70	96	2
TAP	70	192	2
TAP	71	0	3
TAP	71	0	4
TAP	71	96	3
TAP	71	96	4
XTP	71	192	3
XTP	71	192	4
TAP	72	0	5
TAP	72	96	5
TAP	72	192	4
TAP	72	192	5
TAP	73	0	2
TAP	73	96	2
TAP	73	192	2
TAP	73	192	3
XTP	74	0	3
XTP	74	0	4
XTP	74	192	3
XTP	74	192	4
TAP	75	0	5
TAP	75	96	4
TAP	75	192	5
TAP	76	0	2
TAP	76	96	3
TAP	76	192	2
TAP	77	0	3
TAP	77	0	4
TAP	77	96	3
TAP	77	96	4
BRK	77	192	2
BRK	77	192	5
STR	78	0	2
SI_	78	0	2	96	288	5
STR	80	0	6
SI_	80	0	6	96	288	1
STR	82	0	0
SI_	82	0	0	96	288	4
STR	84	0	7
SI_	84	0	7	96	288	3
TAP	86	0	2
TAP	86	192	3
HLD	87	0	4	336
HLD	87	0	5	336

T_REC_TAP	95
T_REC_BRK	9
T_REC_XTP	23
T_REC_HLD	11
T_REC_XHO	0
T_REC_STR	6
T_REC_BST	0
T_REC_XST	0
T_REC_TTP	8
T_REC_THO	1
T_REC_SLD	6
T_REC_ALL	159
T_NUM_TAP	132
T_NUM_BRK	9
T_NUM_HLD	12
T_NUM_SLD	6
T_NUM_ALL	159
T_JUDGE_TAP	141
T_JUDGE_HLD	70
T_JUDGE_SLD	6
T_JUDGE_ALL	217
TTM_EACHPAIRS	25
TTM_SCR_TAP	66000
TTM_SCR_BRK	23400
TTM_SCR_HLD	12000
TTM_SCR_SLD	9000
TTM_SCR_ALL	110400
TTM_SCR_S	106250
TTM_SCR_SS	109500
TTM_RAT_ACV	10082

