VERSION	0.00.00	1.03.00
FES_MODE	0
BPM_DEF	190.000	190.000	190.000	190.000
MET_DEF	4	4
RESOLUTION	384
CLK_DEF	384
COMPATIBLE_CODE	MA2

BPM	0	0	190.000
MET	0	0	4	4
MET	25	0	4	2
MET	25	192	4	4

TAP	1	0	2
TAP	1	0	4
TAP	1	96	5
TAP	1	144	5
TAP	1	192	4
TAP	1	288	3
TAP	1	288	5
TAP	2	0	3
TAP	2	0	5
TAP	2	96	2
HLD	2	96	6	192
TAP	2	192	4
TAP	2	288	2
TAP	3	0	3
TAP	3	0	5
TAP	3	96	2
TAP	3	144	2
TAP	3	192	3
TAP	3	288	2
TAP	3	288	4
TAP	4	0	2
TAP	4	0	4
HLD	4	96	1	192
TAP	4	96	5
TAP	4	192	3
TAP	4	288	5
TAP	5	0	2
TAP	5	0	4
XTP	5	96	5
TAP	5	144	5
TAP	5	192	4
XTP	5	288	3
XTP	5	288	5
TAP	6	0	3
TAP	6	0	5
XTP	6	96	2
XHO	6	96	6	192
TAP	6	192	4
XTP	6	288	2
TAP	7	0	4
TAP	7	0	6
TAP	7	48	5
TAP	7	96	1
TAP	7	96	3
TAP	7	144	2
TAP	7	192	4
TAP	7	192	6
TAP	7	240	5
TAP	7	288	1
TAP	7	288	3
TAP	7	336	1
TAP	7	336	3
TAP	8	48	4
TAP	8	48	6
STR	8	144	1
SI_	8	144	1	96	48	4
STR	8	144	3
SI_	8	144	3	96	48	7
XTP	8	240	1
XTP	8	240	3
TAP	9	0	3
TAP	9	0	6
TAP	9	48	6
TAP	9	96	4
TAP	9	96	6
TAP	9	144	6
TAP	9	192	2
TAP	9	192	7
TAP	9	240	7
TAP	9	288	3
TAP	9	288	7
TAP	9	336	7
TAP	10	0	1
STR	10	48	1
SI_	10	48	1	96	48	5
STR	10	144	4
SI_	10	144	4	96	48	7
TAP	10	240	0
TAP	10	288	0
TAP	11	0	1
TAP	11	0	4
TAP	11	48	1
TAP	11	96	1
TAP	11	96	3
TAP	11	144	1
TAP	11	192	0
TAP	11	192	5
TAP	11	240	0
TAP	11	288	0
TAP	11	288	4
TAP	11	336	0
TAP	12	0	6
STR	12	48	6
SI_	12	48	6	96	48	2
STR	12	144	3
SI_	12	144	3	96	48	0
TAP	12	240	7
TAP	12	288	7
STR	13	0	6
SI_	13	0	6	96	48	3
STR	13	96	1
SI_	13	96	1	96	48	5
STR	13	192	7
SI_	13	192	7	96	48	3
TAP	13	288	0
TAP	13	336	0
TAP	14	48	1
TAP	14	48	6
TAP	14	96	2
TAP	14	96	5
TAP	14	144	3
TAP	14	144	4
TAP	14	240	3
TAP	14	240	4
TAP	14	288	2
TAP	14	288	5
TAP	15	0	7
TAP	15	48	5
TAP	15	96	2
TAP	15	96	4
TAP	15	144	1
TAP	15	192	0
TAP	15	240	2
TAP	15	288	3
TAP	15	288	5
TAP	15	336	6
TAP	16	0	7
TAP	16	48	5
TAP	16	96	2
TAP	16	96	4
TAP	16	144	1
TAP	16	192	0
TAP	16	216	7
TAP	16	240	0
TAP	16	264	7
TAP	16	288	0
STR	17	0	5
SI_	17	0	5	96	48	0
TAP	17	96	3
STR	17	144	2
SI_	17	144	2	96	48	7
TAP	17	240	4
STR	17	288	5
SI_	17	288	5	96	48	0
TAP	18	0	3
STR	18	96	1
SI_	18	96	1	96	48	5
STR	18	96	7
SI_	18	96	7	96	48	3
XTP	18	192	1
XTP	18	192	7
XTP	18	288	3
XTP	18	288	5
STR	19	0	2
SI_	19	0	2	96	48	7
TAP	19	96	4
STR	19	144	5
SI_	19	144	5	96	48	0
TAP	19	240	3
STR	19	288	2
SI_	19	288	2	96	48	7
TAP	20	0	4
STR	20	96	0
SI_	20	96	0	96	48	4
STR	20	96	6
SI_	20	96	6	96	48	2
XTP	20	192	0
XTP	20	192	6
XTP	20	288	2
XTP	20	288	4
STR	21	0	5
SI_	21	0	5	96	48	0
TAP	21	96	3
STR	21	144	2
SI_	21	144	2	96	48	7
TAP	21	240	4
STR	21	288	5
SI_	21	288	5	96	48	0
TAP	22	0	3
STR	22	96	0
SI_	22	96	0	96	48	4
STR	22	96	7
SI_	22	96	7	96	48	3
XTP	22	192	0
XTP	22	192	7
XTP	22	288	1
XTP	22	288	6
TAP	23	0	7
TAP	23	48	7
TAP	23	96	0
TAP	23	144	5
TAP	23	192	2
HLD	23	240	2	96
TAP	23	336	3
TAP	24	48	1
TAP	24	48	3
TAP	24	144	4
TAP	24	144	6
TAP	24	240	0
TAP	24	264	7
TAP	24	288	0
TAP	24	336	1
TAP	24	336	6
TAP	25	0	2
TAP	25	0	5
TAP	25	192	3
TAP	25	192	6
TAP	25	288	7
TAP	25	336	1
TAP	26	0	3
TAP	26	48	3
TAP	26	96	2
HLD	26	144	5	96
TAP	26	240	3
TAP	26	288	6
TAP	26	336	6
TAP	27	0	4
TAP	27	48	4
TAP	27	96	5
TAP	27	192	3
TAP	27	192	6
TAP	27	288	7
TAP	27	336	1
TAP	28	0	3
TAP	28	48	3
TAP	28	96	2
HLD	28	144	5	96
TAP	28	240	3
TAP	28	288	6
TAP	28	336	6
TAP	29	0	4
TAP	29	48	4
TAP	29	96	3
TAP	29	96	5
STR	29	192	4
SI_	29	192	4	96	48	7
TAP	29	192	5
TAP	29	288	5
STR	30	0	4
SI_	30	0	4	96	48	0
TAP	30	0	5
TAP	30	96	5
STR	30	192	4
SI_	30	192	4	96	48	1
TAP	30	192	5
TAP	30	288	5
TAP	31	0	4
TAP	31	0	5
STR	31	96	4
SF_	31	96	4	96	96	0
TAP	31	96	5
TAP	32	0	5
TAP	32	48	4
TAP	32	96	3
TAP	32	144	2
STR	32	144	3
SI_	32	144	3	96	48	7
TAP	32	240	1
TAP	32	288	1
TAP	32	336	2
TAP	33	0	3
TAP	33	48	3
TAP	33	96	2
TAP	33	96	4
TAP	33	192	1
TAP	33	192	5
TAP	33	288	0
TAP	33	336	6
TAP	34	0	4
TAP	34	48	4
TAP	34	96	5
HLD	34	144	2	96
TAP	34	240	4
TAP	34	288	1
TAP	34	336	1
TAP	35	0	3
TAP	35	48	3
XTP	35	96	2
XTP	35	192	1
XTP	35	192	4
TAP	35	288	0
TAP	35	336	6
TAP	36	0	4
TAP	36	48	4
TAP	36	96	5
HLD	36	144	2	96
TAP	36	240	4
TAP	36	288	1
TAP	36	336	1
TAP	37	0	3
TAP	37	48	3
TAP	37	96	2
TAP	37	96	4
STR	37	192	0
SV_	37	192	0	96	48	3
TAP	37	192	1
TAP	37	288	1
STR	38	0	0
SUL	38	0	0	96	48	3
TAP	38	0	1
TAP	38	96	1
TAP	38	192	0
TAP	38	192	1
STR	38	288	0
SCL	38	288	0	96	96	3
TAP	38	288	1
TAP	39	0	1
HLD	39	96	1	96
TTP	39	192	0	C	1	M1
TAP	39	336	0
TAP	39	336	7
TAP	40	48	4
TAP	40	48	6
TAP	40	144	1
TAP	40	144	3
TAP	40	240	5
TAP	40	288	5
STR	40	336	4
SI_	40	336	4	96	48	0
STR	40	336	6
SI_	40	336	6	96	48	3
XTP	41	48	4
XTP	41	48	6
STR	41	192	7
SCL	41	192	7	96	48	4
TTP	41	288	5	B	0	M1
TTP	41	288	6	B	0	M1
STR	42	0	0
SCR	42	0	0	96	48	3
TTP	42	96	1	B	0	M1
TTP	42	96	2	B	0	M1
STR	42	192	7
SCL	42	192	7	96	48	4
TTP	42	288	5	B	0	M1
TTP	42	288	6	B	0	M1
TAP	43	0	0
STR	43	96	0
SUR	43	96	0	96	48	5
STR	43	96	1
SCR	43	96	1	96	48	4
STR	43	288	6
SCL	43	288	6	96	48	3
STR	43	288	7
SUL	43	288	7	96	48	2
STR	44	96	1
SXR	44	96	1	96	192	4
XTP	44	192	4
XTP	44	288	4
XTP	45	0	5
TAP	45	96	3
TAP	45	96	6
HLD	45	192	7	96
HLD	45	288	5	96
HLD	46	0	3	96
HLD	46	96	1	96
HLD	46	192	7	96
HLD	46	288	5	96
HLD	47	0	3	96
HLD	47	96	1	96
STR	47	192	7
SI_	47	192	7	96	96	3
STR	47	288	3
SCL	47	288	3	96	96	0
STR	48	0	0
SI_	48	0	0	96	96	4
STR	48	96	4
SCR	48	96	4	96	192	3
TTP	48	192	0	C	1	M1
TAP	49	96	0
TAP	49	96	7
TAP	49	192	2
STR	49	192	3
SCR	49	192	3	96	48	6
TAP	49	288	0
STR	50	0	4
SCL	50	0	4	96	48	1
TAP	50	0	5
TAP	50	96	7
TAP	50	192	2
STR	50	192	3
SV_	50	192	3	96	48	6
TAP	50	288	0
TAP	51	0	0
TAP	51	0	5
TAP	51	96	3
TAP	51	96	6
STR	51	192	4
SCL	51	192	4	96	48	1
TAP	51	192	5
TAP	51	288	7
TAP	52	0	2
STR	52	0	3
SCR	52	0	3	96	48	6
TAP	52	96	0
STR	52	192	4
SSL	52	192	4	96	144	0
TAP	52	192	5
TAP	52	288	5
TAP	53	0	5
XTP	53	96	7
BRK	53	192	0
BRK	53	192	7
XTP	53	208	1
XTP	53	208	6
XTP	53	224	2
XTP	53	224	5
XTP	53	240	3
XTP	53	240	4
BRK	53	336	0
BRK	53	336	7
XTP	53	352	1
XTP	53	352	6
XTP	53	368	2
XTP	53	368	5
XTP	54	0	3
XTP	54	0	4
BRK	54	96	0
BRK	54	96	7
XTP	54	112	1
XTP	54	112	6
XTP	54	128	2
XTP	54	128	5
XTP	54	144	3
XTP	54	144	4
TAP	54	240	0
TAP	54	240	7
TAP	54	288	0
TAP	54	288	7
STR	55	0	3
SI_	55	0	3	96	48	7
STR	55	0	4
SI_	55	0	4	96	48	0
TAP	55	192	1
TAP	55	192	6
TAP	55	288	5
TAP	55	336	4
TAP	55	336	6
TAP	56	0	2
TAP	56	48	1
TAP	56	48	3
TAP	56	96	0
TAP	56	144	0
TAP	56	240	3
TAP	56	240	4
TAP	56	288	2
TAP	56	288	5
TAP	56	336	1
TAP	56	336	6
TAP	57	0	0
TAP	57	24	7
TAP	57	48	0
BRK	57	96	2
BRK	57	96	5
STR	57	192	1
SI_	57	192	1	96	48	5
TAP	57	240	1
STR	57	288	0
SI_	57	288	0	96	48	4
TAP	57	336	0
STR	58	0	7
SI_	58	0	7	96	48	3
TAP	58	48	7
STR	58	96	6
SLL	58	96	6	96	96	2
TAP	58	144	6
XTP	58	192	1
TAP	58	288	0
HLD	58	336	0	96
TAP	59	48	6
TAP	59	96	1
TAP	59	96	5
STR	59	192	6
SI_	59	192	6	96	48	2
TAP	59	240	6
STR	59	288	7
SI_	59	288	7	96	48	3
TAP	59	336	7
STR	60	0	0
SI_	60	0	0	96	48	4
TAP	60	48	0
STR	60	96	1
SI_	60	96	1	96	48	3
TAP	60	144	1
XTP	60	192	7
TAP	60	288	4
STR	60	336	3
SI_	60	336	3	96	48	0
STR	60	336	4
SI_	60	336	4	96	48	7
TAP	61	192	7
TAP	61	240	6
TAP	61	288	5
TAP	61	336	3
TAP	61	336	4
XTP	62	0	2
XTP	62	48	1
XTP	62	96	0
XTP	62	144	6
XTP	62	144	7
BRK	62	192	5
BRK	62	240	4
BRK	62	288	3
BST	62	336	2
SCR	62	336	2	96	48	5
TAP	63	48	6
TAP	63	144	7
TAP	63	192	0
TAP	63	192	7
TAP	63	240	1
TAP	63	240	4
TAP	63	288	5
TAP	63	336	6
TAP	63	336	7
TAP	64	0	0
TAP	64	48	1
TAP	64	48	2
TAP	64	96	3
TAP	64	144	4
TAP	64	144	6
TAP	64	192	1
TAP	64	192	7
STR	64	240	1
SXL	64	240	1	96	48	3
STR	64	240	7
SI_	64	240	7	96	48	1
BRK	64	336	1
BRK	64	336	7
BRK	65	96	1
BRK	65	96	5
STR	65	192	6
SI_	65	192	6	96	48	2
TAP	65	240	6
STR	65	288	7
SI_	65	288	7	96	48	3
TAP	65	336	7
STR	66	0	0
SI_	66	0	0	96	48	4
TAP	66	48	0
STR	66	96	1
SLR	66	96	1	96	96	5
TAP	66	144	1
XTP	66	192	6
TAP	66	288	7
HLD	66	336	7	96
TAP	67	48	1
TAP	67	96	2
TAP	67	96	6
STR	67	192	1
SI_	67	192	1	96	48	5
TAP	67	240	1
STR	67	288	0
SI_	67	288	0	96	48	4
TAP	67	336	0
STR	68	0	7
SI_	68	0	7	96	48	3
TAP	68	48	7
STR	68	96	6
SI_	68	96	6	96	48	4
TAP	68	144	6
XTP	68	192	0
TAP	68	288	3
STR	68	336	3
SI_	68	336	3	96	48	0
STR	68	336	4
SI_	68	336	4	96	48	7
TAP	69	192	0
TAP	69	192	7
TAP	69	240	1
TAP	69	288	2
TAP	69	288	4
TAP	69	336	5
TAP	70	0	4
TAP	70	0	6
TAP	70	96	1
TAP	70	96	7
STR	70	144	1
SI_	70	144	1	96	48	5
STR	70	144	7
SI_	70	144	7	96	48	3
TAP	70	336	2
TAP	70	336	6
TAP	71	48	0
BRK	71	96	0
TAP	71	192	4
TAP	71	192	6
TAP	71	240	3
TAP	71	288	4
TAP	71	288	5
TAP	71	336	6
TAP	72	0	3
TAP	72	0	5
TAP	72	48	2
TAP	72	96	3
TAP	72	96	4
TAP	72	144	5
TAP	72	192	2
TAP	72	192	4
TAP	72	240	1
TAP	72	288	2
TAP	72	288	3
TAP	72	336	5
TAP	73	0	3
TAP	73	24	4
TAP	73	48	3
TAP	73	72	4
STR	73	96	2
SCL	73	96	2	96	480	3
TTP	73	192	0	C	1	M1
TAP	75	192	3
TAP	75	192	4
TAP	75	288	2
TAP	75	336	2
TAP	76	0	5
TAP	76	48	5
TAP	76	96	3
TAP	76	96	4
TAP	76	192	2
TAP	76	192	6
TAP	76	264	0
TAP	76	264	4
TAP	76	336	1
TAP	76	336	5
STR	77	0	1
SI_	77	0	1	96	48	4
STR	77	0	5
SI_	77	0	5	96	48	0
BRK	77	96	1
BRK	77	96	5
TAP	77	192	2
TAP	77	240	3
TAP	77	288	0
BRK	77	336	7
TAP	78	48	5
TAP	78	96	5
TAP	78	144	3
TAP	78	192	7
TTP	78	240	6	E	0	M1
TTP	78	264	5	E	0	M1
TTP	78	288	4	E	0	M1
TAP	78	336	1
TAP	79	0	1
TAP	79	48	0
TAP	79	96	7
TAP	79	144	6
TAP	79	192	4
TAP	79	192	5
TAP	79	240	3
TAP	79	288	4
TAP	79	288	6
TAP	79	336	7
TAP	80	0	3
TAP	80	0	6
TAP	80	48	2
TAP	80	96	3
TAP	80	96	5
TAP	80	144	6
TAP	80	192	2
TAP	80	192	5
TAP	80	240	1
TAP	80	288	2
TAP	80	288	4
HLD	80	336	5	96
TAP	81	48	0
TAP	81	96	0
TAP	81	144	7
HLD	81	192	6	64
TAP	81	256	4
HLD	81	288	4	64
TAP	81	352	3
HLD	82	0	3	64
TAP	82	64	1
TAP	82	96	1
BRK	82	192	6
TAP	82	208	5
TAP	82	224	4
TAP	82	240	3
TAP	82	256	2
TAP	82	272	1
BRK	82	288	7
TAP	82	304	6
TAP	82	320	5
TAP	82	336	4
TAP	82	352	3
TAP	82	368	2
TAP	83	0	1
TAP	83	96	3
TAP	83	96	5
TAP	83	192	5
TAP	83	240	4
TAP	83	288	6
TAP	83	336	2
TAP	83	360	2
TAP	84	0	3
TAP	84	48	1
TAP	84	96	5
TAP	84	144	4
TAP	84	192	7
TAP	84	240	2
TAP	84	288	3
TAP	84	336	0
TAP	84	360	0
TAP	85	0	5
TAP	85	48	4
TAP	85	96	6
TAP	85	144	6
TAP	85	192	3
TAP	85	240	5
TAP	85	288	2
TAP	85	336	4
TAP	86	0	1
TAP	86	48	3
TAP	86	96	0
TAP	86	144	7
TAP	86	192	1
STR	86	240	5
SCR	86	240	5	96	96	2
TAP	86	288	4
TAP	86	336	3
HLD	87	192	4	768
TTP	87	288	1	E	0	M1
TTP	87	336	1	B	0	M1
TTP	88	96	3	B	0	M1
TTP	88	96	3	E	0	M1
TTP	88	288	1	E	0	M1
TTP	88	336	1	B	0	M1
TTP	89	96	2	B	0	M1
TTP	89	96	3	E	0	M1
HLD	89	192	3	768
TTP	89	288	7	E	0	M1
TTP	89	336	6	B	0	M1
TTP	90	96	4	B	0	M1
TTP	90	96	5	E	0	M1
TTP	90	288	7	E	0	M1
TTP	90	336	6	B	0	M1
TTP	91	96	5	B	0	M1
TTP	91	96	5	E	0	M1
HLD	91	192	4	480
TTP	91	288	1	E	0	M1
TTP	91	336	1	B	0	M1
TTP	92	96	3	B	0	M1
TTP	92	96	3	E	0	M1
TTP	92	288	1	B	0	M1
TTP	92	336	2	B	0	M1
XTP	93	48	0
XTP	93	48	7
XTP	93	96	0
XTP	93	96	7
TAP	93	192	4
TAP	93	192	6
TAP	93	240	5
TAP	93	288	1
TAP	93	288	3
TAP	93	336	2
TAP	94	0	4
TAP	94	0	6
TAP	94	48	5
TAP	94	96	1
TAP	94	96	3
TAP	94	144	2
STR	94	192	7
SI_	94	192	7	96	48	1
STR	94	240	1
SXL	94	240	1	96	48	3
TTP	94	336	0	C	1	M1
XTP	95	96	0
XTP	95	96	7
STR	95	192	1
SI_	95	192	1	96	48	5
TAP	95	240	1
STR	95	288	0
SI_	95	288	0	96	48	4
TAP	95	336	0
STR	96	0	7
SI_	96	0	7	96	48	3
TAP	96	48	7
STR	96	96	6
SLL	96	96	6	96	48	2
TAP	96	144	6
XTP	96	192	1
TAP	96	288	0
TAP	96	336	0
TTP	97	48	1	E	0	M1
TTP	97	48	7	E	0	M1
TTP	97	96	2	B	0	M1
TTP	97	96	3	B	0	M1
TTP	97	96	4	B	0	M1
TTP	97	96	5	B	0	M1
STR	97	192	6
SI_	97	192	6	96	48	2
TAP	97	240	6
STR	97	288	7
SI_	97	288	7	96	48	3
TAP	97	336	7
STR	98	0	0
SI_	98	0	0	96	48	4
TAP	98	48	0
STR	98	96	1
SI_	98	96	1	96	48	3
TAP	98	144	1
HLD	98	192	7	96
TAP	98	288	0
STR	98	336	1
SI_	98	336	1	96	48	4
STR	98	336	6
SI_	98	336	6	96	48	3
XTP	99	48	1
XTP	99	48	6
TAP	99	192	0
TAP	99	192	7
TAP	99	240	6
TAP	99	288	3
TAP	99	288	5
TAP	99	336	2
TAP	100	0	1
TAP	100	0	3
TAP	100	96	0
TAP	100	96	7
STR	100	144	0
SXL	100	144	0	96	96	0
STR	100	144	7
SXR	100	144	7	96	96	7
TAP	101	48	7
TAP	101	96	7
TAP	101	192	4
TAP	101	192	6
TAP	101	240	3
TAP	101	288	2
TAP	101	288	3
TAP	101	336	1
TAP	102	0	0
TAP	102	0	7
TAP	102	48	6
TAP	102	96	3
TAP	102	96	5
TAP	102	144	4
TAP	102	192	1
TAP	102	192	3
TAP	102	240	0
TAP	102	288	6
TAP	102	288	7
TAP	102	336	5
TAP	103	0	2
TAP	103	0	4
TAP	103	48	1
TAP	103	96	0
TAP	103	96	7
TAP	103	144	6
TAP	103	192	3
TAP	103	192	5
TAP	103	240	2
TAP	103	288	1
TAP	103	288	3
TAP	103	336	0
TAP	104	0	6
TAP	104	0	7
TAP	104	48	5
TAP	104	96	4
TAP	104	96	5
TAP	104	144	3
TAP	104	192	2
TAP	104	192	4
TAP	104	240	1
TAP	104	288	0
TAP	104	288	6
TAP	104	336	5
STR	105	0	3
SI_	105	0	3	96	48	1
TAP	105	24	4
TAP	105	48	3
TAP	105	72	4
STR	105	192	6
SI_	105	192	6	96	48	2
TAP	105	288	2
STR	105	336	1
SI_	105	336	1	96	48	5
TAP	106	48	5
TAP	106	96	6
TAP	106	192	3
STR	106	192	7
SI_	106	192	7	96	48	3
STR	106	288	2
SI_	106	288	2	96	48	6
TAP	106	288	7
BRK	107	0	2
BRK	107	96	0
BRK	107	96	7
STR	107	192	6
SI_	107	192	6	96	48	2
TAP	107	288	2
STR	107	336	1
SI_	107	336	1	96	48	5
TAP	108	48	5
TAP	108	96	6
TAP	108	192	3
STR	108	192	7
SI_	108	192	7	96	48	3
STR	108	288	2
SI_	108	288	2	96	48	6
TAP	108	288	7
BRK	109	0	2
BRK	109	96	1
BRK	109	96	6
STR	109	192	7
SI_	109	192	7	96	48	3
TAP	109	288	2
STR	109	336	1
SI_	109	336	1	96	48	5
TAP	110	48	5
TAP	110	96	6
TAP	110	192	3
STR	110	192	7
SI_	110	192	7	96	48	3
STR	110	288	2
SI_	110	288	2	96	48	6
TAP	110	288	7
BRK	111	0	2
BRK	111	96	2
BRK	111	96	5
STR	111	192	6
SI_	111	192	6	96	48	2
TAP	111	288	2
STR	111	336	1
SI_	111	336	1	96	48	5
TAP	112	48	5
TAP	112	96	6
TAP	112	192	3
TAP	112	192	7
STR	112	288	0
SI_	112	288	0	96	48	4
STR	112	288	1
SI_	112	288	1	96	48	5
BRK	113	0	0
BRK	113	0	1
BST	113	96	3
SCL	113	96	3	96	384	4
BRK	113	96	4
TTP	113	192	0	C	1	M1
TAP	115	0	2
TAP	115	0	4
TAP	115	48	5
TAP	115	72	4
TAP	115	96	6
TAP	115	144	7
TAP	115	192	0
TAP	115	192	7
TAP	115	240	1
TAP	115	288	2
TAP	115	288	3
TAP	115	336	4
TAP	116	0	3
TAP	116	0	5
TAP	116	48	2
TTP	116	96	7	B	0	M1
TTP	116	96	7	E	0	M1
TTP	116	144	4	B	0	M1
TTP	116	144	5	E	0	M1
TTP	116	192	3	B	0	M1
TTP	116	192	3	E	0	M1
TTP	116	240	0	B	0	M1
TTP	116	240	1	E	0	M1
TTP	116	288	5	B	0	M1
TTP	116	288	6	B	0	M1
TTP	116	288	6	E	0	M1
TTP	116	336	1	B	0	M1
TTP	116	336	2	B	0	M1
TTP	116	336	2	E	0	M1
BRK	117	96	0
BRK	117	96	7
BRK	117	144	0
BRK	117	144	7
TAP	117	336	2
TAP	117	360	3
TAP	118	0	1
TAP	118	24	5
TAP	118	48	4
TAP	118	72	6
TAP	118	96	0
HLD	118	120	7	168
HLD	118	288	0	288
TTP	119	0	0	C	0	M1
TTP	119	48	6	E	0	M1
TTP	119	72	5	B	0	M1
TTP	119	96	4	B	0	M1
TTP	119	120	3	B	0	M1
TTP	119	144	2	B	0	M1
TTP	119	168	1	B	0	M1
TTP	119	192	1	E	0	M1
HLD	119	240	7	336
TTP	119	312	2	E	0	M1
TTP	119	336	2	B	0	M1
TTP	119	360	3	B	0	M1
TTP	120	0	4	B	0	M1
TTP	120	24	5	B	0	M1
TTP	120	48	6	B	0	M1
TTP	120	72	7	E	0	M1
THO	120	192	0	288	C	0	M1

T_REC_TAP	563
T_REC_BRK	37
T_REC_XTP	64
T_REC_HLD	29
T_REC_XHO	1
T_REC_STR	113
T_REC_BST	2
T_REC_XST	0
T_REC_TTP	71
T_REC_THO	1
T_REC_SLD	115
T_REC_ALL	996
T_NUM_TAP	811
T_NUM_BRK	39
T_NUM_HLD	31
T_NUM_SLD	115
T_NUM_ALL	996
T_JUDGE_TAP	850
T_JUDGE_HLD	119
T_JUDGE_SLD	115
T_JUDGE_ALL	1084
TTM_EACHPAIRS	193
TTM_SCR_TAP	405500
TTM_SCR_BRK	101400
TTM_SCR_HLD	31000
TTM_SCR_SLD	172500
TTM_SCR_ALL	710400
TTM_SCR_S	685350
TTM_SCR_SS	706500
TTM_RAT_ACV	10055

