VERSION	0.00.00	1.03.00
FES_MODE	0
BPM_DEF	190.000	190.000	190.000	190.000
MET_DEF	4	4
RESOLUTION	384
CLK_DEF	384
COMPATIBLE_CODE	MA2

BPM	0	0	190.000
MET	0	0	4	4
MET	25	0	4	2
MET	25	192	4	4

HLD	1	0	2	768
TAP	1	96	3
TAP	1	144	3
TAP	1	288	7
TAP	2	96	3
TAP	2	144	3
TAP	2	288	7
HLD	3	0	5	768
TAP	3	96	4
TAP	3	144	4
TAP	3	288	0
TAP	4	96	4
TAP	4	144	4
TAP	4	288	0
HLD	5	0	1	384
XTP	5	96	7
TAP	5	192	3
XTP	5	288	7
HLD	6	0	6	384
XTP	6	96	0
TAP	6	192	4
XTP	6	288	0
TAP	7	0	1
TAP	7	96	5
TAP	7	96	7
TAP	7	192	0
TAP	7	192	2
XTP	7	288	1
XTP	7	288	6
XTP	7	336	1
XTP	7	336	6
XTP	8	48	2
XTP	8	48	3
XTP	8	144	4
XTP	8	144	5
BRK	8	240	0
BRK	8	240	7
TAP	9	0	1
TAP	9	96	0
TAP	9	96	1
TAP	9	192	6
TAP	9	288	6
TAP	9	288	7
TAP	10	0	5
HLD	10	48	5	96
TAP	10	144	4
XTP	10	240	2
XTP	10	240	7
TAP	11	0	6
TAP	11	96	6
TAP	11	96	7
TAP	11	192	1
TAP	11	288	0
TAP	11	288	1
TAP	12	0	2
HLD	12	48	2	96
TAP	12	144	3
XTP	12	240	0
XTP	12	240	5
HLD	13	0	6	96
HLD	13	96	5	96
HLD	13	192	4	96
HLD	13	288	3	96
HLD	14	0	2	96
STR	14	96	1
SCL	14	96	1	96	96	6
TAP	15	0	5
TAP	15	96	4
TAP	15	96	6
TAP	15	192	1
TAP	15	192	3
TAP	15	288	1
TAP	15	288	3
TAP	16	0	5
TAP	16	0	7
TAP	16	96	5
TAP	16	96	7
TAP	16	192	0
STR	16	192	2
SCR	16	192	2	96	96	5
HLD	17	0	6	96
HLD	17	144	0	96
HLD	17	144	7	96
TAP	17	288	0
TAP	17	288	1
TAP	18	0	2
TAP	18	0	7
STR	18	96	6
SI_	18	96	6	96	96	2
STR	18	192	1
SI_	18	192	1	96	96	5
HLD	19	0	6	96
HLD	19	144	0	96
HLD	19	144	7	96
TAP	19	288	0
TAP	19	288	1
TAP	20	0	2
TAP	20	0	7
STR	20	96	6
SI_	20	96	6	96	96	2
STR	20	192	1
SI_	20	192	1	96	96	5
HLD	21	0	6	96
HLD	21	144	0	96
HLD	21	144	7	96
TAP	21	288	0
TAP	21	288	1
TAP	22	0	2
TAP	22	0	7
STR	22	96	6
SI_	22	96	6	96	96	2
STR	22	192	1
SI_	22	192	1	96	96	5
TAP	23	0	6
TAP	23	96	5
TAP	23	96	7
TAP	23	192	0
TAP	23	192	2
TAP	23	288	3
TAP	23	288	4
TAP	23	336	3
TAP	23	336	4
TAP	24	48	2
TAP	24	48	5
STR	24	144	1
SCR	24	144	1	96	96	3
STR	24	144	6
SCL	24	144	6	96	96	4
XTP	25	0	0
XTP	25	0	7
BRK	25	192	3
TAP	25	288	4
TAP	25	336	4
TAP	26	0	3
TAP	26	96	4
TAP	26	144	3
TAP	26	240	3
TAP	26	288	4
TAP	27	0	3
TAP	27	48	3
TAP	27	96	4
TAP	27	192	3
TAP	27	288	4
TAP	27	336	4
TAP	28	0	3
TAP	28	96	4
TAP	28	144	3
TAP	28	240	3
TAP	28	288	4
TAP	29	0	3
TAP	29	48	3
TAP	29	96	4
STR	29	192	3
SI_	29	192	3	96	96	0
TAP	29	288	5
STR	30	0	4
SI_	30	0	4	96	96	7
TAP	30	96	2
STR	30	192	3
SI_	30	192	3	96	96	0
TAP	30	288	6
STR	31	0	4
SI_	31	0	4	96	96	7
TAP	31	96	1
BRK	31	192	0
TAP	31	288	7
TAP	32	0	6
TAP	32	96	5
HLD	32	144	5	144
TAP	32	288	4
TAP	33	0	2
TAP	33	0	3
TAP	33	96	4
TAP	33	96	5
BRK	33	192	3
TAP	33	288	4
TAP	33	336	4
TAP	34	0	3
TAP	34	96	4
TAP	34	144	3
TAP	34	240	3
TAP	34	288	4
TAP	35	0	3
TAP	35	48	3
TAP	35	96	4
TAP	35	192	3
TAP	35	288	4
TAP	35	336	4
TAP	36	0	3
TAP	36	96	4
TAP	36	144	3
TAP	36	240	3
TAP	36	288	4
TAP	37	0	3
TAP	37	48	3
TAP	37	96	4
STR	37	192	3
SI_	37	192	3	96	96	0
TAP	37	288	5
STR	38	0	4
SI_	38	0	4	96	96	7
TAP	38	96	2
STR	38	192	3
SI_	38	192	3	96	96	0
TAP	38	288	6
STR	39	0	4
SI_	39	0	4	96	96	7
TAP	39	96	1
TTP	39	192	0	C	1	M1
XTP	40	144	1
XTP	40	144	6
XTP	40	240	2
XTP	40	240	3
XTP	40	336	4
XTP	40	336	5
BRK	41	48	0
BRK	41	48	7
STR	41	192	5
SCL	41	192	5	96	96	2
STR	42	0	1
SUR	42	0	1	96	96	5
STR	42	192	6
SI_	42	192	6	96	96	3
STR	43	0	2
SCR	43	0	2	96	96	5
STR	43	192	6
SUL	43	192	6	96	96	2
STR	44	0	1
SI_	44	0	1	96	96	4
TAP	44	192	6
TAP	44	288	0
TAP	45	0	4
TAP	45	0	5
XTP	45	96	2
XTP	45	96	7
HLD	45	192	1	96
HLD	45	288	2	96
HLD	46	0	3	96
HLD	46	96	4	96
HLD	46	192	2	96
HLD	46	288	3	96
HLD	47	0	4	96
HLD	47	96	5	96
HLD	47	192	3	96
HLD	47	288	4	96
HLD	48	0	5	96
STR	48	96	6
SXL	48	96	6	96	288	1
STR	49	192	2
SCR	49	192	2	96	96	5
STR	50	0	6
SUL	50	0	6	96	96	2
STR	50	192	1
SI_	50	192	1	96	96	4
STR	51	0	5
SCL	51	0	5	96	96	2
STR	51	192	1
SUR	51	192	1	96	96	5
STR	52	0	6
SI_	52	0	6	96	96	3
TAP	52	192	1
TAP	52	288	7
TAP	53	0	2
TAP	53	0	3
XTP	53	96	0
XTP	53	96	5
STR	53	192	7
SXR	53	192	7	96	192	7
STR	54	96	0
SXL	54	96	0	96	192	0
TAP	55	0	7
TAP	55	96	0
TAP	55	96	7
TAP	55	192	1
TAP	55	192	5
TAP	55	288	2
TAP	55	288	6
TAP	55	336	2
TAP	55	336	6
STR	56	48	1
SV_	56	48	1	96	240	3
STR	56	48	5
SCR	56	48	5	96	240	1
BRK	57	96	3
TAP	57	192	7
TAP	57	240	7
TAP	57	288	0
TAP	57	336	0
TAP	58	0	6
TAP	58	48	6
TAP	58	96	1
XHO	58	192	0	96
XHO	58	192	2	96
XHO	58	336	4	96
XHO	58	336	6	96
BRK	59	96	0
TAP	59	192	1
TAP	59	240	1
TAP	59	288	7
TAP	59	336	7
TAP	60	0	2
TAP	60	48	2
TAP	60	96	3
XHO	60	192	0	96
XHO	60	192	5	96
XST	60	336	2
SI_	60	336	2	96	72	7
XST	60	336	3
SI_	60	336	3	96	72	6
TAP	61	192	0
TAP	61	192	5
TAP	61	288	1
TAP	62	0	2
TAP	62	0	7
TAP	62	96	6
TAP	62	192	0
TAP	62	192	5
TAP	62	288	1
TAP	62	288	6
STR	62	336	1
SCR	62	336	1	96	72	3
STR	62	336	6
SCL	62	336	6	96	72	4
TTP	63	192	4	E	0	M1
TTP	63	288	0	C	0	M1
TTP	64	0	0	E	0	M1
TAP	64	96	1
TAP	64	96	5
TAP	64	144	1
STR	64	144	5
SCR	64	144	5	96	192	3
TTP	64	336	0	C	1	M1
HLD	65	192	0	96
TAP	65	288	7
TAP	65	336	7
TAP	66	0	1
TAP	66	48	1
TAP	66	96	6
XHO	66	192	5	96
XHO	66	192	7	96
XHO	66	336	1	96
XHO	66	336	3	96
BRK	67	96	7
TAP	67	192	6
TAP	67	240	6
TAP	67	288	0
TAP	67	336	0
TAP	68	0	5
TAP	68	48	5
TAP	68	96	4
XHO	68	192	2	96
XHO	68	192	7	96
XST	68	336	4
SI_	68	336	4	96	72	1
XST	68	336	5
SI_	68	336	5	96	72	0
TAP	69	192	2
TAP	69	192	7
TAP	69	288	3
TAP	69	288	4
TAP	70	0	0
TAP	70	0	5
TAP	70	96	1
TAP	70	96	6
TAP	70	144	1
TAP	70	144	6
TAP	70	240	7
TAP	70	288	7
STR	70	336	0
SI_	70	336	0	96	72	3
TTP	71	192	0	E	0	M1
TTP	71	288	7	E	0	M1
TTP	72	0	6	E	0	M1
TTP	72	96	5	E	0	M1
TTP	72	192	4	E	0	M1
TTP	72	288	3	E	0	M1
TTP	73	0	2	E	0	M1
TTP	73	96	1	E	0	M1
TTP	73	192	0	E	0	M1
THO	73	192	0	576	C	0	M1
TAP	75	192	3
TAP	75	288	4
TAP	75	336	4
TAP	76	0	3
STR	76	96	4
SUL	76	96	4	96	192	3
TAP	77	96	0
TAP	77	96	7
TAP	77	192	2
STR	77	192	5
SI_	77	192	5	96	96	2
TAP	78	0	1
TAP	78	96	0
TAP	78	96	1
TAP	78	192	6
TAP	78	288	6
TAP	78	288	7
TAP	79	0	3
TAP	79	96	3
TAP	79	96	4
TAP	79	192	5
TAP	79	288	4
TAP	79	288	6
TAP	80	0	2
TAP	80	96	1
TAP	80	96	3
TAP	80	192	5
TAP	80	192	7
TAP	80	288	0
TAP	80	288	2
TAP	81	0	3
TAP	81	0	4
XTP	81	96	0
XTP	81	96	7
XHO	81	192	5	72
XHO	81	288	6	64
XHO	82	0	7	72
XHO	82	96	0	72
XHO	82	192	1	72
XST	82	288	2
SCR	82	288	2	96	96	5
TAP	83	192	3
TAP	83	192	4
TAP	83	288	2
TAP	83	288	3
TAP	83	336	2
TAP	83	336	3
TAP	84	48	4
TAP	84	48	5
TAP	84	96	4
TAP	84	96	5
TAP	84	192	0
TAP	84	192	1
TAP	84	240	0
TAP	84	240	1
TAP	84	336	6
TAP	84	336	7
TAP	85	0	6
TAP	85	0	7
TAP	85	96	1
TAP	85	96	6
TTP	85	192	0	E	0	M1
TTP	85	288	1	E	0	M1
TTP	85	288	7	E	0	M1
TTP	86	0	2	E	0	M1
TTP	86	0	6	E	0	M1
TTP	86	96	3	B	0	M1
TTP	86	96	4	B	0	M1
TTP	86	96	4	E	0	M1
THO	86	192	0	144	C	1	M1
TTP	86	192	1	B	0	M1
TTP	86	192	2	B	0	M1
TTP	86	192	5	B	0	M1
TTP	86	192	6	B	0	M1
BRK	87	192	3
BRK	87	192	4
TAP	87	288	5
TAP	87	336	5
TAP	88	0	3
TAP	88	96	5
TAP	88	144	4
TAP	88	240	4
TAP	88	288	5
TAP	89	0	4
TAP	89	48	4
TAP	89	96	5
TAP	89	192	3
TAP	89	192	4
TAP	89	288	2
TAP	89	336	2
TAP	90	0	4
TAP	90	96	2
TAP	90	144	3
TAP	90	240	3
TAP	90	288	2
TAP	91	0	3
TAP	91	48	3
TAP	91	96	2
TAP	91	192	3
TAP	91	192	4
TAP	91	288	5
TAP	91	336	5
TAP	92	0	4
TAP	92	96	3
TAP	92	96	4
TAP	92	192	2
TAP	92	240	2
TAP	92	288	3
TTP	92	336	0	C	0	M1
XTP	93	192	0
XTP	93	192	7
XTP	93	288	2
XTP	93	288	3
XTP	94	0	4
XTP	94	0	5
XTP	94	96	2
XTP	94	96	6
XST	94	144	2
SCL	94	144	2	96	192	4
XTP	94	144	6
TTP	94	336	0	C	1	M1
TAP	95	192	7
TAP	95	240	7
TAP	95	288	0
TAP	95	336	0
TAP	96	0	6
TAP	96	48	6
TAP	96	96	1
XHO	96	192	0	96
XHO	96	192	2	96
XHO	96	336	5	96
XHO	96	336	7	96
BRK	97	96	1
BRK	97	96	6
TAP	97	192	2
TAP	97	240	2
TAP	97	288	5
TAP	97	336	5
TAP	98	0	0
TAP	98	48	0
TAP	98	96	7
XHO	98	192	1	96
XHO	98	192	5	96
XST	98	336	2
SI_	98	336	2	96	72	7
XST	98	336	6
SI_	98	336	6	96	72	3
TAP	99	192	0
TAP	99	192	5
TAP	99	288	2
TAP	99	288	7
XTP	100	0	1
XTP	100	0	6
XTP	100	48	1
XTP	100	48	6
XTP	100	96	1
XTP	100	96	6
XTP	100	144	1
XTP	100	144	6
TAP	100	240	0
TAP	100	288	0
STR	100	336	7
SI_	100	336	7	96	72	4
TTP	101	192	3	B	0	M1
TTP	101	288	1	B	0	M1
TTP	102	0	7	B	0	M1
TTP	102	96	5	B	0	M1
TTP	102	192	4	E	0	M1
TTP	102	288	2	E	0	M1
TTP	103	0	0	E	0	M1
TTP	103	96	6	E	0	M1
TAP	103	192	2
TAP	103	192	3
TAP	103	288	0
TAP	103	288	1
TAP	104	0	6
TAP	104	0	7
TAP	104	96	4
TAP	104	96	5
TAP	104	192	1
TAP	104	192	2
TAP	104	288	6
TAP	104	288	7
XTP	105	0	3
XTP	105	0	4
BRK	105	96	1
BRK	105	96	6
HLD	105	192	0	96
HLD	105	192	1	96
HLD	105	336	0	96
HLD	105	336	7	96
TAP	106	96	6
TAP	106	96	7
TAP	106	192	0
TAP	106	192	5
XST	106	288	1
SI_	106	288	1	96	48	5
XST	107	0	6
SI_	107	0	6	96	48	2
XTP	107	96	1
HLD	107	192	0	96
HLD	107	192	1	96
HLD	107	336	0	96
HLD	107	336	7	96
TAP	108	96	6
TAP	108	96	7
TAP	108	192	0
TAP	108	192	5
XST	108	288	1
SI_	108	288	1	96	48	5
XST	109	0	6
SI_	109	0	6	96	48	2
XTP	109	96	1
HLD	109	192	0	96
HLD	109	192	1	96
HLD	109	336	0	96
HLD	109	336	7	96
TAP	110	96	6
TAP	110	96	7
TAP	110	192	0
TAP	110	192	5
XST	110	288	1
SI_	110	288	1	96	48	5
XST	111	0	6
SI_	111	0	6	96	48	2
XTP	111	96	1
HLD	111	192	0	96
HLD	111	192	1	96
HLD	111	336	0	96
HLD	111	336	7	96
TAP	112	96	6
TAP	112	96	7
TAP	112	192	0
TAP	112	192	5
XST	112	288	1
SI_	112	288	1	96	48	5
XST	113	0	6
SI_	113	0	6	96	48	2
XTP	113	96	1
XST	113	192	0
SUL	113	192	0	96	384	7
XTP	113	240	0
TAP	115	0	0
TAP	115	48	0
TAP	115	96	7
TAP	115	144	7
TAP	115	192	1
TAP	115	240	1
TAP	115	288	6
TAP	115	336	6
TAP	116	0	2
TAP	116	48	2
TAP	116	96	5
TAP	116	144	5
TAP	116	192	3
TAP	116	240	3
TAP	116	288	4
XHO	116	336	4	1776
BST	117	96	0
SCR	117	96	0	96	1536	0
BRK	117	144	0

T_REC_TAP	339
T_REC_BRK	17
T_REC_XTP	54
T_REC_HLD	49
T_REC_XHO	24
T_REC_STR	42
T_REC_BST	1
T_REC_XST	17
T_REC_TTP	36
T_REC_THO	2
T_REC_SLD	60
T_REC_ALL	641
T_NUM_TAP	488
T_NUM_BRK	18
T_NUM_HLD	75
T_NUM_SLD	60
T_NUM_ALL	641
T_JUDGE_TAP	506
T_JUDGE_HLD	237
T_JUDGE_SLD	60
T_JUDGE_ALL	803
TTM_EACHPAIRS	135
TTM_SCR_TAP	244000
TTM_SCR_BRK	46800
TTM_SCR_HLD	75000
TTM_SCR_SLD	90000
TTM_SCR_ALL	455800
TTM_SCR_S	440400
TTM_SCR_SS	454000
TTM_RAT_ACV	10039

