VERSION	0.00.00	1.03.00
FES_MODE	0
BPM_DEF	190.000	190.000	190.000	190.000
MET_DEF	4	4
RESOLUTION	384
CLK_DEF	384
COMPATIBLE_CODE	MA2

BPM	0	0	190.000
MET	0	0	4	4

XHO	1	0	2	384
TAP	2	0	3
TAP	2	192	3
HLD	3	0	5	384
TAP	4	0	4
TAP	4	192	4
HLD	5	0	6	384
TAP	6	0	7
TAP	6	192	7
HLD	7	0	0	384
TAP	8	0	7
TAP	8	192	1
TAP	8	192	6
TAP	9	0	2
TAP	9	96	2
TAP	9	192	2
TAP	9	192	3
TAP	10	0	5
TAP	10	96	5
TAP	10	192	4
TAP	10	192	5
TAP	11	0	2
TAP	11	96	2
TAP	11	192	2
TAP	11	192	3
TAP	12	0	4
TAP	12	96	4
TAP	12	192	3
TAP	12	192	5
TAP	13	0	6
TAP	13	96	6
TAP	13	192	6
TAP	13	192	7
TAP	14	0	1
TAP	14	96	1
TAP	14	192	0
TAP	14	192	1
TAP	15	0	6
TAP	15	96	6
TAP	15	192	7
TAP	15	288	7
TAP	16	0	0
TAP	16	96	0
TAP	16	192	1
TAP	16	192	6
STR	17	0	5
SCR	17	0	5	96	144	0
TAP	18	0	1
TAP	18	96	1
TAP	18	192	0
TAP	18	192	1
STR	19	0	1
SCR	19	0	1	96	144	4
TAP	20	0	5
TAP	20	96	5
TAP	20	192	4
TAP	20	192	5
STR	21	0	5
SCR	21	0	5	96	144	0
TAP	22	0	1
TAP	22	96	1
TAP	22	192	0
TAP	22	192	1
STR	23	0	1
SCR	23	0	1	96	144	4
XTP	24	0	5
XTP	24	96	6
XTP	24	192	0
XTP	24	192	7
XTP	24	288	1
XTP	24	288	6
XHO	25	192	2	192
TAP	26	0	3
HLD	26	192	5	192
TAP	27	0	4
HLD	27	192	2	192
TAP	28	0	3
HLD	28	192	4	96
HLD	28	192	5	96
TAP	29	0	4
TAP	29	0	5
TAP	29	192	2
TAP	29	288	2
TAP	30	0	3
TAP	30	96	3
TAP	30	192	4
TAP	30	288	4
TAP	31	0	3
TAP	31	0	5
TAP	31	192	5
TAP	31	288	5
TAP	32	0	4
TAP	32	96	4
TAP	32	192	3
TAP	32	288	3
TAP	33	0	2
TAP	33	0	5
HLD	33	192	6	192
TAP	34	0	7
HLD	34	192	1	192
TAP	35	0	0
HLD	35	192	6	192
TAP	36	0	7
HLD	36	192	0	96
HLD	36	192	1	96
TAP	37	0	0
TAP	37	0	1
TAP	37	192	1
TAP	37	288	1
TAP	38	0	0
TAP	38	96	0
TAP	38	192	7
TAP	38	288	7
TAP	39	0	0
TAP	39	0	6
XTP	39	192	6
XTP	39	288	6
XTP	40	0	7
XTP	40	96	7
XTP	40	192	0
XTP	40	288	0
XTP	41	0	1
XTP	41	0	6
STR	41	192	2
SI_	41	192	2	96	144	7
STR	42	192	6
SI_	42	192	6	96	144	3
STR	43	192	2
SI_	43	192	2	96	144	5
STR	44	192	6
SI_	44	192	6	96	144	3
TAP	45	192	2
TAP	45	288	2
TAP	46	0	3
TAP	46	192	5
TAP	46	288	5
TAP	47	0	4
TAP	47	192	2
TAP	47	288	2
TAP	48	0	3
TAP	48	192	4
TAP	48	288	4
TAP	49	0	3
TAP	49	0	5
STR	49	192	5
SI_	49	192	5	96	144	0
STR	50	192	1
SI_	50	192	1	96	144	4
STR	51	192	5
SI_	51	192	5	96	144	0
STR	52	192	1
SI_	52	192	1	96	144	5
TAP	53	192	6
TAP	53	288	6
TAP	54	0	7
TAP	54	192	1
TAP	54	288	1
TAP	55	0	0
TAP	55	192	7
TAP	55	288	7
TAP	56	0	0
TAP	56	96	0
TAP	56	192	0
TAP	56	192	7
TAP	56	288	0
TAP	56	288	7
BRK	57	0	1
BRK	57	0	6
TAP	57	192	1
TAP	57	288	1
TAP	58	0	0
TAP	58	0	1
TAP	58	96	0
TAP	58	96	1
TAP	58	192	2
TAP	58	288	3
TAP	59	0	4
TAP	59	0	5
TAP	59	192	6
TAP	59	288	6
TAP	60	0	6
TAP	60	0	7
TAP	60	96	6
TAP	60	96	7
TAP	60	192	5
TAP	60	288	4
TAP	61	0	2
TAP	61	0	3
HLD	61	192	2	192
TAP	61	288	3
TAP	62	0	3
HLD	62	192	5	192
TAP	62	288	4
TAP	63	0	4
TAP	63	192	3
TAP	63	288	3
TAP	64	0	4
TAP	64	96	4
TAP	64	192	3
TAP	64	192	4
TAP	64	288	3
TAP	64	288	4
TAP	65	0	2
TAP	65	0	5
TAP	65	192	6
TAP	65	288	6
TAP	66	0	6
TAP	66	0	7
TAP	66	96	6
TAP	66	96	7
TAP	66	192	5
TAP	66	288	4
TAP	67	0	2
TAP	67	0	3
TAP	67	192	1
TAP	67	288	1
TAP	68	0	0
TAP	68	0	1
TAP	68	96	0
TAP	68	96	1
TAP	68	192	2
TAP	68	288	3
TAP	69	0	4
TAP	69	0	5
HLD	69	192	5	192
TAP	69	288	4
TAP	70	0	4
HLD	70	192	2	192
TAP	70	288	3
TAP	71	0	3
TAP	71	192	5
TAP	71	288	5
TAP	72	0	4
TAP	72	96	4
TAP	72	192	3
TAP	72	288	3
TAP	73	0	2
TAP	73	96	2
STR	73	192	1
SCR	73	192	1	96	384	7
TAP	75	192	0
TAP	75	288	0
TAP	76	0	7
TAP	76	96	7
BRK	76	192	1
BRK	76	192	6
STR	77	192	2
SI_	77	192	2	96	144	5
STR	78	192	6
SI_	78	192	6	96	144	2
STR	79	192	1
SI_	79	192	1	96	144	5
TAP	80	192	6
TAP	81	0	3
TAP	81	0	5
STR	81	192	6
SI_	81	192	6	96	144	2
STR	82	192	1
SI_	82	192	1	96	144	4
STR	83	192	5
SCL	83	192	5	96	144	2
STR	84	192	1
SCR	84	192	1	96	144	4
TAP	85	192	5
TAP	85	288	5
TAP	86	0	6
TAP	86	96	6
BRK	86	192	0
BRK	86	192	7
TTP	87	192	6	B	0	L1
TTP	88	0	5	B	0	L1
TTP	88	192	5	E	0	L1
TTP	89	192	1	B	0	L1
TTP	90	0	2	B	0	L1
TTP	90	192	3	E	0	L1
TTP	91	192	4	B	0	L1
TTP	92	0	5	B	0	L1
TTP	92	192	6	B	0	L1
TTP	93	192	0	B	0	L1
TTP	93	192	7	B	0	L1
TTP	94	0	1	B	0	L1
TTP	94	0	6	B	0	L1
TTP	94	192	0	C	1	L1
XTP	95	192	0
TAP	95	288	1
TAP	96	0	0
TAP	96	0	1
TAP	96	96	0
TAP	96	96	1
TAP	96	192	2
TAP	96	288	3
TAP	97	0	4
TAP	97	0	5
TAP	97	192	6
TAP	97	288	6
TAP	98	0	6
TAP	98	0	7
TAP	98	96	6
TAP	98	96	7
TAP	98	192	5
TAP	98	288	4
TAP	99	0	3
TAP	99	0	5
HLD	99	192	6	192
TAP	99	288	7
TAP	100	0	7
HLD	100	192	1	192
TAP	100	288	0
TAP	101	0	0
TAP	101	192	6
TAP	101	288	6
TAP	102	0	7
TAP	102	96	7
TAP	102	192	0
TAP	102	288	0
TAP	103	0	1
TAP	103	96	1
STR	103	192	2
SCL	103	192	2	96	432	4
STR	105	192	5
SI_	105	192	5	96	144	0
TAP	106	192	1
TAP	106	288	1
TAP	107	0	0
TAP	107	0	1
STR	107	192	1
SI_	107	192	1	96	144	4
TAP	108	192	5
TAP	108	288	5
TAP	109	0	4
TAP	109	0	5
STR	109	192	5
SI_	109	192	5	96	144	0
TAP	110	192	1
TAP	110	288	1
TAP	111	0	0
TAP	111	0	1
STR	111	192	1
SI_	111	192	1	96	144	4
TAP	112	192	5
TAP	112	288	5
STR	113	0	5
SCR	113	0	5	96	432	3
XTP	115	0	2
XTP	115	96	2
XTP	115	192	3
XTP	115	288	3
XTP	116	0	4
XTP	116	96	4
XTP	116	192	3
XHO	116	288	2	192
XHO	116	288	5	192

T_REC_TAP	236
T_REC_BRK	6
T_REC_XTP	22
T_REC_HLD	18
T_REC_XHO	4
T_REC_STR	26
T_REC_BST	0
T_REC_XST	0
T_REC_TTP	14
T_REC_THO	0
T_REC_SLD	26
T_REC_ALL	352
T_NUM_TAP	298
T_NUM_BRK	6
T_NUM_HLD	22
T_NUM_SLD	26
T_NUM_ALL	352
T_JUDGE_TAP	304
T_JUDGE_HLD	96
T_JUDGE_SLD	26
T_JUDGE_ALL	426
TTM_EACHPAIRS	53
TTM_SCR_TAP	149000
TTM_SCR_BRK	15600
TTM_SCR_HLD	22000
TTM_SCR_SLD	39000
TTM_SCR_ALL	225600
TTM_SCR_S	218250
TTM_SCR_SS	225000
TTM_RAT_ACV	10026

